TV - Other

TOM&JERRY CLASSICS VOLUME 2 DISC 2[DVDRIP][ENG] KIDZCORNER&J T R

  • Download 5x Faster
  • Download torrent
  • Direct Download
  • Rate this torrent +  |  -
TOM&JERRY CLASSICS VOLUME 2 DISC 2[DVDRIP][ENG] KIDZCORNER&J T R

Free and Direct Download with Usenet.nl 300GB+ free


Torrent info

Name:TOM&JERRY CLASSICS VOLUME 2 DISC 2[DVDRIP][ENG] KIDZCORNER&J T R

Total Size: 865.14 MB

Magnet: Magnet Link

Seeds: 2

Leechers: 5

Stream: Watch Online @ Movie4u

Last Updated: 2010-09-08 14:03:37 (Update Now)

Torrent added: 2009-08-24 07:35:44





Torrent Files List


Tracked by moviesb4time.biz.txt (Size: 865.14 MB) (Files: 4)

 Tracked by moviesb4time.biz.txt

1.35 KB

 TOM_N_JERRY_VOL2d2_F5B

  TITLE01.avi

865.11 MB

 553080_DV_L_F.JPG

30.49 KB

 Torrent downloaded from Demonoid.com-1.txt

0.05 KB
 

Announce URL: http://inferno.demonoid.com:3406/announce

Torrent description

Little Quacker, Salt Water Tabby, Polka-Dot Puss, Saturday Evening Puss, A Mouse In The House, The Little Orphan, Texas Tom, The Invisible Mouse, Heavenly Puss, Jerry And The Lion, Hatch Up Your Troubles and Safety Second.

General
Complete name : C:\Users\joker\Desktop\TOM&JERRY CLASSICS-VOLUME 2-DISC 2[DVDRIP][ENG]-KIDZCORNER&J.T.R\TOM_N_JERRY_VOL2d2_F5B\TITLE01.avi
Format : AVI
Format/Info : Audio Video Interleave
File size : 865 MiB
Duration : 1h 30mn
Overall bit rate : 1 340 Kbps

Video
Format : MPEG-4 Visual
Format profile : [email protected]
Format settings, BVOP : No
Format settings, QPel : No
Format settings, GMC : No warppoints
Format settings, Matrix : Default
Codec ID : XVID
Codec ID/Hint : XviD
Duration : 1h 30mn
Bit rate : 1 200 Kbps
Width : 640 pixels
Height : 480 pixels
Display aspect ratio : 4/3
Frame rate : 25.000 fps
Resolution : 24 bits
Colorimetry : 4:2:0
Scan type : Progressive
Bits/(Pixel*Frame) : 0.156
Stream size : 775 MiB (90%)
Writing library : Magic0432

Audio
Format : MPEG Audio
Format version : Version 1
Format profile : Layer 3
Codec ID : 55
Codec ID/Hint : MP3
Duration : 1h 30mn
Bit rate mode : Constant
Bit rate : 128 Kbps
Channel(s) : 2 channels
Sampling rate : 44.1 KHz
Resolution : 16 bits
Stream size : 82.7 MiB (10%)
Alignment : Aligned on interleaves
Interleave, duration : 26 ms (0.65 video frame)
Writing library : LAME3.97

related torrents

Torrent name

health leech seeds Size
 

comments (0)

Main Menu