TV - Other

TOM&JERRY CLASSICS VOLUME 1 DISC 2[DVDRIP][ENG] KIDZCORNER&J T R

  • Download 5x Faster
  • Download torrent
  • Direct Download
  • Rate this torrent +  |  -

Torrent info

Name:TOM&JERRY CLASSICS VOLUME 1 DISC 2[DVDRIP][ENG] KIDZCORNER&J T R

Total Size: 813.14 MB

Magnet: Magnet Link

Seeds: 0

Leechers: 0

Stream: Watch Full Movie @ Movie4u

Last Updated: 2017-05-09 16:50:49 (Update Now)

Torrent added: 2009-08-24 07:35:38



VPN For Torrents

Torrent Files List


Tracked by moviesb4time.biz.txt (Size: 813.14 MB) (Files: 5)

 Tracked by moviesb4time.biz.txt

1.35 KB

 Torrent downloaded from Demonoid.com-1.txt

0.05 KB

 553002_DV_L_F.JPG

31.50 KB

 553002_DV_L_B.JPG

34.51 KB

 TOM_N_JERRY_VOL_DISC 2

  TITLE01.avi

813.07 MB
 

tracker

leech seeds
 

Torrent description

volume 1 disc 2

disc 2 of volume 1

Zoot Cat
The Bodyguard
Puttin' On The Dog
Mouse Troubles
The Mouse Comes To Dinner
Mouse In Manhattan
Tee For two
Flirty Birdy
Quiet Please!
Springtime For Thomas
The Milky Waif
Trap Happy

General
Complete name : C:\Users\joker\Desktop\TOM&JERRY CLASSICS-VOLUME 1-DISC 2[DVDRIP][ENG]-KIDZCORNER&J.T.R\TOM_N_JERRY_VOL_DISC 2\TITLE01.avi
Format : AVI
Format/Info : Audio Video Interleave
File size : 813 MiB
Duration : 1h 24mn
Overall bit rate : 1 340 Kbps

Video
Format : MPEG-4 Visual
Format profile : [email protected]
Format settings, BVOP : No
Format settings, QPel : No
Format settings, GMC : No warppoints
Format settings, Matrix : Default
Codec ID : XVID
Codec ID/Hint : XviD
Duration : 1h 24mn
Bit rate : 1 199 Kbps
Width : 640 pixels
Height : 480 pixels
Display aspect ratio : 4/3
Frame rate : 25.000 fps
Resolution : 24 bits
Colorimetry : 4:2:0
Scan type : Progressive
Bits/(Pixel*Frame) : 0.156
Stream size : 728 MiB (90%)
Writing library : Magic0432

Audio
Format : MPEG Audio
Format version : Version 1
Format profile : Layer 3
Codec ID : 55
Codec ID/Hint : MP3
Duration : 1h 24mn
Bit rate mode : Constant
Bit rate : 128 Kbps
Channel(s) : 2 channels
Sampling rate : 44.1 KHz
Resolution : 16 bits
Stream size : 77.7 MiB (10%)
Alignment : Aligned on interleaves
Interleave, duration : 26 ms (0.65 video frame)

related torrents

Torrent name

health leech seeds Size
 


comments (0)

Main Menu

 

script data-cfasync="false" src="//d2ghscazvn398x.cloudfront.net/?cshgd=690275">