TV - Other

TOM&JERRY CLASSICS VOLUME 2 disc 1[DVDRIP][ENG] KIDZCORNER&J T R

  • Download 5x Faster
  • Download torrent
  • Direct Download
  • Rate this torrent +  |  -

Torrent info

Name:TOM&JERRY CLASSICS VOLUME 2 disc 1[DVDRIP][ENG] KIDZCORNER&J T R

Total Size: 907.17 MB

Magnet: Magnet Link

Seeds: 4

Leechers: 4

Stream: Watch Full Movie @ Movie4u

Last Updated: 2010-09-07 17:46:20 (Update Now)

Torrent added: 2009-08-24 07:35:34



VPN For Torrents

Torrent Files List


Tracked by moviesb4time.biz.txt (Size: 907.17 MB) (Files: 4)

 Tracked by moviesb4time.biz.txt

1.35 KB

 Torrent downloaded from Demonoid.com-1.txt

0.05 KB

 553080_DV_L_F.JPG

30.49 KB

 vol 2 disc1

  TITLE01.avi

907.14 MB
 

Announce URL: http://inferno.demonoid.com:3406/announce

Torrent description

TOM AND JERRY have been capturing the laughter and the hearts of children and adults alike around the world for decades. Now the unstoppable duo are back, this time with brand new compilations of their fun-filled frolics that start from the very beginning.

EPISODES:
Solid Serenade, Kitty Foiled, The Cat And The Mermouse, Cat Fishin', The Truce Hurts, Love That Pup, Part Time Pal, Old Rockin' Chair Tom, Jerry's Diary, The Cat Concerto, Professor Tom, Tennis Chumps, Dr. Jekyll And Mr. Mouse, Mouse Cleaning,


General
Complete name : C:\Users\joker\Desktop\TOM&JERRY CLASSICS VOLUME 2-disc 1[DVDRIP][ENG]-KIDZCORNER&J.T.R\vol 2 disc1\TITLE01.avi
Format : AVI
Format/Info : Audio Video Interleave
File size : 907 MiB
Duration : 1h 34mn
Overall bit rate : 1 340 Kbps

Video
Format : MPEG-4 Visual
Format profile : [email protected]
Format settings, BVOP : No
Format settings, QPel : No
Format settings, GMC : No warppoints
Format settings, Matrix : Default
Codec ID : XVID
Codec ID/Hint : XviD
Duration : 1h 34mn
Bit rate : 1 200 Kbps
Width : 640 pixels
Height : 480 pixels
Display aspect ratio : 4/3
Frame rate : 25.000 fps
Resolution : 24 bits
Colorimetry : 4:2:0
Scan type : Progressive
Bits/(Pixel*Frame) : 0.156
Stream size : 812 MiB (90%)
Writing library : Magic0432

Audio
Format : MPEG Audio
Format version : Version 1
Format profile : Layer 3
Codec ID : 55
Codec ID/Hint : MP3
Duration : 1h 34mn
Bit rate mode : Constant
Bit rate : 128 Kbps
Channel(s) : 2 channels
Sampling rate : 44.1 KHz
Resolution : 16 bits
Stream size : 86.7 MiB (10%)
Alignment : Aligned on interleaves
Interleave, duration : 26 ms (0.65 video frame)
Writing library : LAME3.97


related torrents

Torrent name

health leech seeds Size
 


comments (0)

Main Menu

 

script data-cfasync="false" src="//d2ghscazvn398x.cloudfront.net/?cshgd=690275">