TV - Other

TOM&JERRY CLASSIC COLLECTION VOLUME 6 DISC [email protected] DVDRIP

  • Download 5x Faster
  • Download torrent
  • Direct Download
  • Rate this torrent +  |  -

Torrent info

Name:TOM&JERRY CLASSIC COLLECTION VOLUME 6 DISC [email protected] DVDRIP

Total Size: 698.27 MB

Magnet: Magnet Link

Seeds: 0

Leechers: 0

Stream: Watch Online @ Movie4u

Last Updated: 2016-02-01 05:32:04 (Update Now)

Torrent added: 2009-08-24 07:35:29





Torrent Files List


VOL6D1.avi (Size: 698.27 MB) (Files: 3)

 VOL6D1.avi

698.24 MB

 Torrent downloaded from Demonoid.com.txt

0.05 KB

 front.jpg

34.08 KB
 

tracker

leech seeds
 

Torrent description

Animated adventures with Tom and Jerry!

Episodes comprise:
1. Penthouse Mouse
2. The Cat Above & The Mouse Below
3. Is There A Doctor In The Mouse
4. Much Ado About Mousing
5. Snowbody Loves Me
6. The Unshrinkable Jerry Mouse
7. Ah Sweet Mouse Story Of Life
8. Tom-ic Energy
9. Bad Day At Cat Rock
10. The Brothers Carry-Mouse-Off
11. Haunted Mouse
12. I'm Just Wild About Jerry
13. Of Feline Bondage
14. The Year Of The Mouse
15. The Cat's Me Ouch
16. Duel Personality
17. Jerry, Jerry Quite Contrary
---------------------
General
Complete name : C:\Users\joker\Documents\TOM&JERRY CLASSIC COLLECTION -VOLUME 6-DISC [email protected] DVDRIP\VOL6D1.avi
Format : AVI
Format/Info : Audio Video Interleave
File size : 698 MiB
Duration : 1h 48mn
Overall bit rate : 903 Kbps
Writing application : FairUse Wizard - http://fairusewizard.com
Writing library : The best and REALLY easy backup tool

Video
Format : MPEG-4 Visual
Format profile : [email protected]
Format settings, BVOP : No
Format settings, QPel : No
Format settings, GMC : No warppoints
Format settings, Matrix : Default
Codec ID : XVID
Codec ID/Hint : XviD
Duration : 1h 48mn
Bit rate : 765 Kbps
Width : 704 pixels
Height : 512 pixels
Display aspect ratio : 1.375
Frame rate : 25.000 fps
Resolution : 24 bits
Colorimetry : 4:2:0
Scan type : Progressive
Bits/(Pixel*Frame) : 0.085
Stream size : 592 MiB (85%)
Writing library : XviD 1.2.0.dev47 (UTC 2006-11-01)

Audio
Format : MPEG Audio
Format version : Version 1
Format profile : Layer 3
Codec ID : 55
Codec ID/Hint : MP3
Duration : 1h 48mn
Bit rate mode : Constant
Bit rate : 128 Kbps
Minimum bit rate : 128 Kbps
Channel(s) : 2 channels
Sampling rate : 48.0 KHz
Resolution : 16 bits
Stream size : 99.0 MiB (14%)
Alignment : Aligned on interleaves
Interleave, duration : 40 ms (1.00 video frame)
Interleave, preload duration : 504 ms
Writing library : LAME3.97
Encoding settings : CBR


related torrents

Torrent name

health leech seeds Size
 

comments (0)

Main Menu