TV - Other

TMNT S01 E02 Enter the Shredder DVDRIP Xvid[

  • Download 5x Faster
  • Download torrent
  • Direct Download
  • Rate this torrent +  |  -
TMNT S01 E02 Enter the Shredder DVDRIP Xvid[

Free and Direct Download with Usenet.nl 300GB+ free


Torrent info

Name:TMNT S01 E02 Enter the Shredder DVDRIP Xvid[

Total Size: 200.77 MB

Magnet: Magnet Link

Seeds: 0

Leechers: 0

Stream: Watch Online @ Movie4u

Last Updated: 2010-05-29 18:11:03 (Update Now)

Torrent added: 2009-08-24 07:31:55





Torrent Files List


TMNT S01 E02 - Enter the Shredder.sfv (Size: 200.77 MB) (Files: 17)

 TMNT S01 E02 - Enter the Shredder.sfv

2.21 KB

 TMNT S01 E02 - Enter the Shredder.part15.rar

501.46 KB

 TMNT S01 E02 - Enter the Shredder.part14.rar

14.31 MB

 TMNT S01 E02 - Enter the Shredder.part12.rar

14.31 MB

 TMNT S01 E02 - Enter the Shredder.part13.rar

14.31 MB

 TMNT S01 E02 - Enter the Shredder.part11.rar

14.31 MB

 TMNT S01 E02 - Enter the Shredder.part10.rar

14.31 MB

 TMNT S01 E02 - Enter the Shredder.part09.rar

14.31 MB

 TMNT S01 E02 - Enter the Shredder.part08.rar

14.31 MB

 TMNT S01 E02 - Enter the Shredder.part07.rar

14.31 MB

 TMNT S01 E02 - Enter the Shredder.part06.rar

14.31 MB

 TMNT S01 E02 - Enter the Shredder.part05.rar

14.31 MB

 TMNT S01 E02 - Enter the Shredder.part04.rar

14.31 MB

 TMNT S01 E02 - Enter the Shredder.part03.rar

14.31 MB

 TMNT S01 E02 - Enter the Shredder.part02.rar

14.31 MB

 TMNT S01 E02 - Enter the Shredder.nfo

3.99 KB

 TMNT S01 E02 - Enter the Shredder.part01.rar

14.31 MB
 

Announce URL: http://tracker.ilovetorrents.com/announce.php

Torrent description

Original cartoon series from the 80's

Format : AVI
Format/Info : Audio Video Interleave
File size : 201 MiB
Duration : 22mn 49s
Overall bit rate : 1 230 Kbps
Movie name : TEENAGE MUTANT NINJA TURTLES.Title2.DVDRip
Director : Spegma
Writing application : Lavf51.19.0
Original source form/Name : TEENAGE MUTANT NINJA TURTLES

Video
Format : MPEG-4 Visual
Format profile : [email protected]
Format settings, BVOP : No
Format settings, QPel : No
Format settings, GMC : No warppoints
Format settings, Matrix : Default
Codec ID : XVID
Codec ID/Hint : XviD
Duration : 22mn 49s
Bit rate : 1 088 Kbps
Width : 496 pixels
Height : 368 pixels
Display aspect ratio : 4/3
Frame rate : 29.970 fps
Resolution : 24 bits
Colorimetry : 4:2:0
Scan type : Progressive
Bits/(Pixel*Frame) : 0.199
Stream size : 178 MiB (88%)
Writing library : XviD 1.1.2 (UTC 2006-11-01)

Audio
Format : MPEG Audio
Format version : Version 1
Format profile : Layer 3
Codec ID : 55
Codec ID/Hint : MP3
Duration : 22mn 48s
Bit rate mode : Constant
Bit rate : 128 Kbps
Channel(s) : 2 channels
Sampling rate : 48.0 KHz
Resolution : 16 bits
Stream size : 20.9 MiB (10%)
Alignment : Aligned on interleaves
Interleave, duration : 24 ms (0.72 video frame)
Writing library : LAME3.97

related torrents

Torrent name

health leech seeds Size
 

comments (0)

Main Menu