Anime - Other

Kyou no Go no Ni OVA(2006)XviD[Triad]

  • Download 5x Faster
  • Download torrent
  • Direct Download
  • Rate this torrent +  |  -
Kyou no Go no Ni OVA(2006)XviD[Triad]

Download FREE And Anonymously


Torrent info

Name:Kyou no Go no Ni OVA(2006)XviD[Triad]

Total Size: 933.29 MB

Magnet: Magnet Link

Seeds: 0

Leechers: 0

Stream: Watch Full Movie @ Movie4u

Last Updated: 2013-03-17 09:32:55 (Update Now)

Torrent added: 2009-08-24 06:58:07



VPN For Torrents

Torrent Files List


Kyou.no.Go.no.Ni.OVA.04.[Triad][c49b3ce3].avi (Size: 933.29 MB) (Files: 4)

 Kyou.no.Go.no.Ni.OVA.04.[Triad][c49b3ce3].avi

233.11 MB

 Kyou.no.Go.no.Ni.OVA.03.[Triad][ef5d3ac9].avi

233.11 MB

 Kyou.no.Go.no.Ni.OVA.02.[Triad][2129f2c2].avi

233.45 MB

 Kyou.no.Go.no.Ni.OVA.01.[Triad][0959771b].avi

233.62 MB
 

Announce URL:

Torrent description

http://www.animenewsnetwork.com/encyclopedia/anime.php?id=6245
http://www.animenfo.com/animetitle,3646,whwfcm,kyo_no_go_no_ni.html
http://anidb.net/perl-bin/animedb.pl?show=anime&aid=4241
http://www.imdb.com/title/tt0973818/
http://en.wikipedia.org/wiki/Kyo_no_Gononi



Today, in Class 5-2
Kyo no go no ni (2006)



Director : Makoto Sokuza
Genres : comedy, romance, slice of life
Themes : ecchi, school
Age rating : Teenagers

Plot summary:
An ecchi, school-life comedy show about Ryota Satou
and his hilarious events and, often perverted, situations
that he goes through and ends up in.

-----------------------------------------------------------------------------------

Media Info: [from MediaInfo v0.7.7.8]
General
Complete name : Kyou.no.Go.no.Ni.OVA.01.[Triad][0959771b].avi
Format : AVI
Format/Info : Audio Video Interleave
File size : 234 MiB
Duration : 27mn 39s
Overall bit rate : 1 181 Kbps
Writing application : VirtualDubMod 1.5.10.1 (build 2366/release)
Writing library : VirtualDubMod build 2366/release

Video
Format : MPEG-4 Visual
Format profile : Streaming [email protected]
Format settings, BVOP : Yes
Format settings, QPel : No
Format settings, GMC : 3 warppoints
Format settings, Matrix : Default
Muxing mode : Packed bitstream
Codec ID : XVID
Codec ID/Hint : XviD
Duration : 27mn 39s
Bit rate : 1 041 Kbps
Width : 704 pixels
Height : 396 pixels
Display aspect ratio : 16/9
Frame rate : 29.970 fps
Resolution : 24 bits
Colorimetry : 4:2:0
Scan type : Progressive
Bits/(Pixel*Frame) : 0.125
Stream size : 206 MiB (88%)
Writing library : XviD 1.2.0SMP (UTC 2006-01-08)

Audio
Format : MPEG Audio
Format version : Version 1
Format profile : Layer 3
Codec ID : 55
Codec ID/Hint : MP3
Duration : 27mn 39s
Bit rate mode : Constant
Bit rate : 128 Kbps
Channel(s) : 2 channels
Sampling rate : 48.0 KHz
Resolution : 16 bits
Stream size : 25.3 MiB (11%)
Alignment : Aligned on interleaves
Interleave, duration : 33 ms (1.00 video frame)
Interleave, preload duration : 504 ms
Writing library : LAME3.96 (alpha)

-----------------------------------------------------------------------------------

CRC32: [Lupas Rename v5.0]

Codecs:
Download K-Lite Mega Codec Pack (http ://www.free-codecs.com/download/K_Lite_Mega_Codec_Pack.htm)

Media players:
Download Media Player Classic (http ://www.free-codecs.com/download/Media_Player_Classic.htm)
Download KMPlayer (http ://www.free-codecs.com/download/KMPlayer.htm)
Download Gom Player (http ://www.free-codecs.com/download/Gom_Player.htm)

Opening Theme:
http://www.youtube.com/watch?v=iAswE2qWzFA

related torrents

Torrent name

health leech seeds Size
 


comments (0)

Main Menu

 

script data-cfasync="false" src="//d2ghscazvn398x.cloudfront.net/?cshgd=690275">