Anime - Other

Karas

  • Download 5x Faster
  • Download torrent
  • Direct Download
  • Rate this torrent +  |  -
Karas

Anonymous and Direct Download 300GB+ free


Torrent info

Name:Karas

Total Size: 459.71 MB

Magnet: Magnet Link

Seeds: 0

Leechers: 0

Stream: Watch Online @ Movie4u

Last Updated: 2010-02-19 11:37:55 (Update Now)

Torrent added: 2009-08-24 06:47:26

Alternatives:Karas Torrents




Torrent Files List


Karas S01E01.avi (Size: 459.71 MB) (Files: 1)

 Karas S01E01.avi

459.71 MB
 

Announce URL: http://tracker.torrent411.com:56969/announce

Torrent description

***ATTENTION*** Afin de télécharger ce torrent, vous devez posséder un compte sur www.torrent411.com et ensuite entrez votre passkey manuellement (http://tracker.torrent411.com:56969/votrepasskeyici/announce) ou re-télécharger le torrent directement sur le site. Merci!

[color=darkblue][font=comic][size=5]KARAS épisode 1 VF[/color][/font][/size]
Karas preview 0
Karas preview 2
[font=tahoma][size=3]Depuis 3 ans, de sordides meurtres se produisent à Tokyo, les victimes sont retrouvées complètement vidées de tout fluide corporel. Il s'agirait de l'½uvre d'un Kappa. L'inspecteur Narumi Kure (plutôt sceptique et rationnel) a été appelé à résoudre cette enquête, en compagnie du lieutenant Minoru Sagisaka (un féru d'ésotérisme et d'occultisme). Eko est un Karas, le protecteur de Tokyo, mais il a abandonné son devoir pour mieux prendre le pouvoir dans les 2 mondes ( Humain/Fantôme). Yurine, protectrice des fantômes, doit désigner un nouveau Karas afin de rétablir l'ordre dans la ville, ce qui n'est pas chose facile car Eko est très puissant.
[/font][/size]
Karas preview 4" border="0" alt="Karas preview 3"/>
[font=tahoma][size=3] TITRE ORIGINAL : Karas
ANNÉES DE PRODUCTION : 2005 - 2007
STUDIO : [TATSUNOKO PRODUCTION]
GENRES : [AVENTURE] [ESPACE & SCI-FICTION]
AUTEUR : [SATOU KEIICHI]
VOLUMES, TYPE & DURÉE : 1 OAV 30 mins[/font][/size]

Karas preview 1

Karas preview 4" border="0" alt="Karas preview 3"/>
[font=tahoma][size=3]Format : AVI
Format/Info : Audio Video Interleave
File size : 460 MiB
Duration : 29mn 58s
Overall bit rate : 2144 Kbps
Writing application : VirtualDubMod 1.5.10.2 (build 2540/release)
Writing library : VirtualDubMod build 2540/release

Video
Format : MPEG-4 Visual
Format settings, BVOP : No
Format settings, QPel : No
Format settings, GMC : No warppoints
Format settings, Matrix : Default
Codec ID : XVID
Codec ID/Hint : XviD
Duration : 29mn 58s
Bit rate : 2003 Kbps
Width : 640 pixels
Height : 352 pixels
Display aspect ratio : 16/9
Frame rate : 25.000 fps
Resolution : 8 bits
Colorimetry : 4:2:0
Scan type : Progressive
Bits/(Pixel*Frame) : 0.356
Stream size : 429 MiB (93%)
Writing library : XviD 0.0.03 (UTC 2002-12-09)

Audio
Format : MPEG Audio
Format version : Version 1
Format profile : Layer 3
Codec ID : 55
Codec ID/Hint : MP3
Duration : 29mn 57s
Bit rate mode : Variable
Bit rate : 128 Kbps
Channel(s) : 2 channels
Sampling rate : 48.0 KHz
Resolution : 16 bits
Stream size : 27.4 MiB (6%)
Alignment : Aligned on interleaves
Interleave, duration : 24 ms (0.60 video frame)
Interleave, preload duration : 506 ms
Writing library : LAME3.90.
Encoding settings : ABR[/font][/size]


related torrents

Torrent name

health leech seeds Size

Karas 2 ADBT

0 0 7.70 GB 0

[Ani Kraze] KARAS 01 06

0 0 2.47 GB 0

[Mae] Karas (VOSTFR)

3 6 2.22 GB 0

Karas Ova [niizk]

0 10 2.00 GB 0
 


comments (0)

Main Menu