TV - Other

The Suite Life On Deck 201 The Spy Who Shoved Me[ghalen reseed]

  • Download 5x Faster
  • Download torrent
  • Direct Download
  • Rate this torrent +  |  -
The Suite Life On Deck 201 The Spy Who Shoved Me[ghalen reseed]

Anonymous and Direct Download 300GB+ free


Torrent info

Name:The Suite Life On Deck 201 The Spy Who Shoved Me[ghalen reseed]

Total Size: 312.24 MB

Magnet: Magnet Link

Seeds: 2

Leechers: 8

Stream: Watch Online @ Movie4u

Last Updated: 2010-12-01 03:21:58 (Update Now)

Torrent added: 2009-08-24 06:42:11




Torrent Files List


Torrent downloaded from Demonoid.com.txt (Size: 312.24 MB) (Files: 11)

 Torrent downloaded from Demonoid.com.txt

0.05 KB

 Cover.bmp

900.05 KB

 XviD-MP3

  The Suite Life On Deck - 201 - The Spy Who Shoved Me.sfv

0.25 KB

  The Suite Life On Deck - 201 - The Spy Who Shoved Me.avi.txt

2.09 KB

  The Suite Life On Deck - 201 - The Spy Who Shoved Me.jpg

295.72 KB

  The Suite Life On Deck - 201 - The Spy Who Shoved Me.avi

175.01 MB

 X264-AAC

  The Suite Life On Deck - 201 - The Spy Who Shoved Me.sfv

0.25 KB

  The Suite Life On Deck - 201 - The Spy Who Shoved Me.mp4.txt

2.36 KB

  TSLOD.nfo

6.32 KB

  The Suite Life On Deck - 201 - The Spy Who Shoved Me.jpg

301.92 KB

  The Suite Life On Deck - 201 - The Spy Who Shoved Me.mp4

135.76 MB
 

Announce URL: http://tracker.thepiratebay.org/announce

Torrent description

From Ghalen177
--------------

TV : Family : TV quality : English
This Download has both Xvid/Mp3 and x264/AAC for your convenience
.
*******************************************************************************
The Suite Life on Deck
*******************************************************************************

-------------------------------------------------------------------------------
General Information
-------------------------------------------------------------------------------
Type.................: TV Series
Platform.............: Windows 9x/ME/2000/XP/Vista

Year.................: 2009
Source...............: TV
Original Format......: NTSC
Language.............: English
Genre................: Kids/Teens
Comment..............: Thumbs included, NMT Compatible
Comment..............: Season 2


Format : MPEG-4
Format profile : Base Media
Codec ID : isom
File size : 136 MiB
Duration : 22mn 43s
Overall bit rate : 835 Kbps
Encoded date : UTC 2009-08-07 04:03:10
Tagged date : UTC 2009-08-07 04:03:10

Video
ID : 1
Format : AVC
Format/Info : Advanced Video Codec
Format profile : [email protected]
Format settings, CABAC : Yes
Format settings, ReFrames : 4 frames
Codec ID : avc1
Codec ID/Info : Advanced Video Coding
Duration : 22mn 43s
Bit rate mode : Variable
Bit rate : 800 Kbps
Maximum bit rate : 2 167 Kbps
Width : 640 pixels
Height : 480 pixels
Display aspect ratio : 4/3
Frame rate mode : Constant
Frame rate : 29.970 fps
Resolution : 24 bits
Colorimetry : 4:2:0
Scan type : Progressive
Bits/(Pixel*Frame) : 0.087
Stream size : 130 MiB (96%)
Writing library : x264 core 54 svn-611M
Encoded date : UTC 2009-08-07 03:39:53
Tagged date : UTC 2009-08-07 04:03:13

Audio
ID : 2
Format : AAC
Format/Info : Advanced Audio Codec
Format version : Version 4
Format profile : LC
Format settings, SBR : Yes
Format settings, PS : Yes
Codec ID : 40
Duration : 22mn 43s
Bit rate mode : Variable
Bit rate : 32.3 Kbps
Maximum bit rate : 35.6 Kbps
Channel(s) : 2 channels
Sampling rate : 48.0 KHz
Resolution : 16 bits
Stream size : 5.25 MiB (4%)
Encoded date : UTC 2009-08-07 04:03:13
Tagged date : UTC 2009-08-07 04:03:13

-------------------------------------------------------------------------------
Release Notes
-------------------------------------------------------------------------------
Season: 02
Episode: 01
Code: 205
Aired: August 07, 2009
Release: August 07, 2009

Title: "The Spy Who Shoved Me"

When a spy gets aboard ship and throws another spy overboard, The spy
tells the twins that a Microchip with secret information on it must
be retrieved from a lady only known as Red Finger. Throughout the
show Cody keeps trying to kiss Baily but Zack keeps pulling him away
right before they kiss.

~~~~~~~~~~~~~~~~~~~~~~~~~~~~~~~~~~~~~~~~~~~~~~~~~~~~~~~~~~~~~~~~~~~~~~~~~~~~~~~~
For reference here are the Production code, Episode Number and Title

Production Code | Episode | Title

(205) - 01 - The Spy Who Shoved Me

UNAIRED:
(204) - 02 - Ala-ka-scram!
(203) - 03 - In the Line of Duty
(202) - 04 - Kitchen Casanova
(201) - 05 - Smarticle Particles

-------------------------------------------------------------------------------
Install Notes
-------------------------------------------------------------------------------
New episodes will be posted as they air as always.

Need information on h264 look here http://en.wikipedia.org/wiki/H.264

h264 provides excellent picture quality in smaller file sizes.

Some video cards support accelerated decoding of h264 on board taking
the workload off the main CPU and putting it on the GPU.

H264 is also supported by some newer IPODs.

For the newbies the file extension "SFV" is "Simple File
Verification" and has nothing to do with subtitles or audio. It
verifies the file is complete intact and unmodified. It's as the name
implies, "SIMPLE FILE VERIFICATION".

There has been an update to the episode list, these are updated based
off of current known info @ this date and may change or be updated as
necessary.

Now included is a picture storyboard and a cover from the show.

These are NMT Compatible. These episodes should play with no problems
on most Network Media Tanks and other similar players.

NOTICE:
Please do not HIT & RUN.


Newbies:
All you have to do is keep your torrent program open after the
download and let it seed to others, that means uploading to others.
Help keep torrents alive, thats what it's all about, sharing.

Sharing is Caring.... Caring is Sharing

More Seeders=More Speed for the next person downloading


-------------------------------------------------------------------------------
Please Seed If You Download - If You Enjoy This Show Please Support it!
-------------------------------------------------------------------------------

related torrents

Torrent name

health leech seeds Size
 


comments (0)

Main Menu