Anime - Other

Hachimitsu to Clover(2005)704x396 XviD MP3[ANBU Solar]

  • Download 5x Faster
  • Download torrent
  • Direct Download
  • Rate this torrent +  |  -
Hachimitsu to Clover(2005)704x396 XviD MP3[ANBU Solar]

Anonymous and Free Direct Download 300GB+


Torrent info

Name:Hachimitsu to Clover(2005)704x396 XviD MP3[ANBU Solar]

Total Size: 4.34 GB

Magnet: Magnet Link

Seeds: 2

Leechers: 4

Stream: Watch Online @ Movie4u

Last Updated: 2010-09-01 12:05:05 (Update Now)

Torrent added: 2009-08-24 06:19:02



VPN For Torrents

Torrent Files List


Honey & Clover - Chapter L [Solar][686ADED1].avi (Size: 4.34 GB) (Files: 26)

 Honey & Clover - Chapter L [Solar][686ADED1].avi

176.41 MB

 Honey & Clover - Chapter F [Solar][B257158D].avi

174.65 MB

 Honey & Clover - 24 [Solar][FE4AC414].avi

175.67 MB

 Honey & Clover - 23 [Solar][26BD3A9E].avi

171.88 MB

 Honey & Clover - 22v2 [Solar][E543CE50].avi

168.59 MB

 Honey & Clover - 21 [Solar][BB514787].avi

153.33 MB

 Honey & Clover - 20 [Solar][981A50A7].avi

172.88 MB

 Honey & Clover - 19 [Solar][2D3B59E9].avi

172.87 MB

 Honey & Clover - 18 [Solar][283B4751].avi

172.87 MB

 Honey & Clover - 17 [Solar][C5E929F4].avi

171.86 MB

 Honey & Clover - 16 [Solar][DE0FBDA4].avi

171.85 MB

 Honey & Clover - 15v2 [Solar][8E52D048].avi

171.89 MB

 Honey & Clover - 14 [Solar][ADAE3927].avi

161.30 MB

 Honey & Clover - 13 [Solar][B633F2FA].avi

171.90 MB

 Honey & Clover - 12 [Solar][8FD93052].avi

171.89 MB

 Honey & Clover - 11 [Solar][A41FD7B7].avi

170.72 MB

 Honey & Clover - 10 [Solar][89783443].avi

170.80 MB

 Honey & Clover - 09 [Solar][F4FF1CC6].avi

170.88 MB

 Honey & Clover - 08 [Solar][BF711212].avi

169.80 MB

 Honey & Clover - 07 [Solar][77B98F12].avi

170.90 MB

 Honey & Clover - 06 [Solar][66FB076E].avi

170.99 MB

 Honey & Clover - 05 [Solar][3E0C5839].avi

170.99 MB

 Honey & Clover - 04 [Anbu-Solar][DF6033BA].avi

171.87 MB

 Honey & Clover - 03 [Anbu-Solar][17D44D95].avi

171.83 MB

 Honey & Clover - 02v2 [Anbu-Solar][6436BE26].avi

171.77 MB

 Honey & Clover - 01 [Anbu-Solar][6F1967BE].avi

171.42 MB
 

Announce URL: http://tracker.torrentbox.com:2710/announce

Torrent description


http://www.animenewsnetwork.com/encyclopedia/anime.php?id=4975
http://www.animenfo.com/animetitle,1688,isjecv,hachimitsu_to_c.html
http://anidb.net/perl-bin/animedb.pl?show=anime&aid=2835
http://www.imdb.com/title/tt0478838/
http://en.wikipedia.org/wiki/Honey_%26_Clover



Honey and Clover
"Hachimitsu to Clover" (2005)



Director : Ken'ichi Kasai
Writer : Yosuke Kuroda
Genres : comedy, drama, romance, slice of life

Plot summary:
Takemoto Yuuta, Mayama Takumi, and Morita Shinobu are college
students who share the small apartment. Even though they live
in poverty, the three of them are able to obtain pleasure through
small things in life. The story follows these characters' life
stories as poor college students, as well as their love lives
when a short but talented 18 year old girl called Hanamoto Hagumi
appears.

------------------------------------------------------------------------------------

Media Info: [from MediaInfo v0.7.7.8]
General
Complete name : Honey & Clover - 01 [Anbu-Solar][6F1967BE].avi
Format : AVI
Format/Info : Audio Video Interleave
File size : 171 MiB
Duration : 22mn 39s
Overall bit rate : 1 058 Kbps
Writing application : VirtualDubMod 1.5.4.1 (build 2066/release)
Writing library : VirtualDubMod build 2066/release

Video
Format : MPEG-4 Visual
Format profile : [email protected]
Format settings, BVOP : Yes
Format settings, QPel : No
Format settings, GMC : No warppoints
Format settings, Matrix : Default
Muxing mode : Packed bitstream
Codec ID : XVID
Codec ID/Hint : XviD
Duration : 22mn 39s
Bit rate : 920 Kbps
Width : 704 pixels
Height : 396 pixels
Display aspect ratio : 16/9
Frame rate : 23.976 fps
Resolution : 24 bits
Colorimetry : 4:2:0
Scan type : Progressive
Bits/(Pixel*Frame) : 0.138
Stream size : 149 MiB (87%)
Writing library : XviD 1.1.0 Beta2 (UTC 2005-04-04)

Audio
Format : MPEG Audio
Format version : Version 1
Format profile : Layer 3
Codec ID : 55
Codec ID/Hint : MP3
Duration : 22mn 39s
Bit rate mode : Constant
Bit rate : 128 Kbps
Channel(s) : 2 channels
Sampling rate : 48.0 KHz
Resolution : 16 bits
Stream size : 20.7 MiB (12%)
Alignment : Split accross interleaves
Interleave, duration : 42 ms (1.00 video frame)
Interleave, preload duration : 500 ms

------------------------------------------------------------------------------------

CRC32: [Lupas Rename v5.0]

Codecs:
Download K-Lite Mega Codec Pack (http ://www.free-codecs.com/download/K_Lite_Mega_Codec_Pack.htm)

Media players:
Download Media Player Classic (http ://www.free-codecs.com/download/Media_Player_Classic.htm)
Download KMPlayer (http ://www.free-codecs.com/download/KMPlayer.htm)
Download Gom Player (http ://www.free-codecs.com/download/Gom_Player.htm)

List of episodes:
http://www.animenewsnetwork.com/encyclopedia/anime.php?id=4975&page=25
http://en.wikipedia.org/wiki/List_of_Honey_and_Clover_episodes#Honey_and_Clover_.282005.29

Opening Theme:
http://www.youtube.com/watch?v=LBGg9yZKGxE

related torrents

Torrent name

health leech seeds Size
 


comments (0)

Main Menu