TV - Other

The Lost Room S01 Extras DVDRip XviD SAiNTS [ org]

  • Download 5x Faster
  • Download torrent
  • Direct Download
  • Rate this torrent +  |  -
The Lost Room S01 Extras DVDRip XviD SAiNTS [ org]

Free and Direct Download with Usenet.nl 300GB+ free


Torrent info

Name:The Lost Room S01 Extras DVDRip XviD SAiNTS [ org]

Total Size: 149.00 MB

Magnet: Magnet Link

Seeds: 0

Leechers: 0

Stream: Watch Online @ Movie4u

Last Updated: 2010-04-29 15:41:10 (Update Now)

Torrent added: 2009-08-24 05:56:34





Torrent Files List


the.lost.room.extras.dvdrip.xvid-saints.sfv (Size: 149.00 MB) (Files: 13)

 the.lost.room.extras.dvdrip.xvid-saints.sfv

0.58 KB

 the.lost.room.extras.dvdrip.xvid-saints.rar

14.31 MB

 the.lost.room.extras.dvdrip.xvid-saints.r08

12.44 MB

 the.lost.room.extras.dvdrip.xvid-saints.r07

14.31 MB

 the.lost.room.extras.dvdrip.xvid-saints.r06

14.31 MB

 the.lost.room.extras.dvdrip.xvid-saints.r05

14.31 MB

 the.lost.room.extras.dvdrip.xvid-saints.r04

14.31 MB

 the.lost.room.extras.dvdrip.xvid-saints.r03

14.31 MB

 the.lost.room.extras.dvdrip.xvid-saints.r02

14.31 MB

 the.lost.room.extras.dvdrip.xvid-saints.r01

14.31 MB

 the.lost.room.extras.dvdrip.xvid-saints.r00

14.31 MB

 the.lost.room.extras.dvdrip.xvid-saints.nfo

12.14 KB

 Sample

  the.lost.room.extras.dvdrip.xvid.sample-saints.avi

7.80 MB
 

Announce URL: http://www.seedmore.org/announce.php?passkey=smpk420110802e147eecf9b07912dee8

Torrent description

~ Seedmore ~

Hi m8! Were you thinking about joining a private tracker, well what are you waiting for!! we are a Italian Mob theme website with a new twist ;)
we are focused on fast uploads, new content, and above all: user security ;)
are you also tired of malware and Hit & Runners,:(
Are you an experienced uploader Huh, See forums for how to apply.
well what are you waiting for doors will not be open for long so start typing to join: http://tinyurl.com/seedmore NOW!!!!!!

I want to see you at Seedmore.org :)

General

Complete name The.Lost.Room.S01.Extras.DVDRip.XviDSAiNTS

The.Lost.Room.Extras.Inside.The.Lost.Room.DVDRip.XviD-SAiNTS.avi

Format : AVI

Format/Info : Audio Video Interleave

File size : 140 MiB

Duration : 18mn 9s

Overall bit rate : 1 076 Kbps

Writing application : Nandub v1.0rc2

Writing library : Nandub build 1852/release



Video

Format : MPEG-4 Visual

Format profile : Streaming [email protected]

Format settings, BVOP : Yes

Format settings, QPel : No

Format settings, GMC : No warppoints

Format settings, Matrix : Default

Muxing mode : Packed bitstream

Codec ID : XVID

Codec ID/Hint : XviD

Duration : 18mn 9s

Bit rate : 945 Kbps

Width : 656 pixels

Height : 352 pixels

Display aspect ratio : 1.864

Frame rate : 29.970 fps

Resolution : 24 bits

Colorimetry : 4:2:0

Scan type : Progressive

Bits/(Pixel*Frame) : 0.136

Stream size : 123 MiB (88%)

Writing library : XviD 1.2.0SMP (UTC 2006-01-08)



Audio

Format : MPEG Audio

Format version : Version 1

Format profile : Layer 3

Codec ID : 55

Codec ID/Hint : MP3

Duration : 18mn 9s

Bit rate mode : Variable

Bit rate : 118 Kbps

Channel(s) : 2 channels

Sampling rate : 48.0 KHz

Resolution : 16 bits

Stream size : 15.3 MiB (11%)

Alignment : Aligned on interleaves

Interleave, duration : 24 ms (0.72 video frame)

Interleave, preload duration : 267 ms

Writing library : LAME3.93

Encoding settings : VBR (mtrh)





Title: The Lost Room Extras

Release Date : 03/28/2006

Format : XVID

Video Bitrate : 949 kb/s

Resolution : 656x352 (1.86:1)

FPS : 23.976 fps

Source : DVD

Audio Formate : 118 kb/s VBR



http://www.tv.com/the-lost-room/show/65382/summary.html



Includes: Inside the Lost Room

related torrents

Torrent name

health leech seeds Size
 

comments (0)

Main Menu