TV - Other

The Kinks In Concert (BBC 1973) mp4

  • Download 5x Faster
  • Download torrent
  • Direct Download
  • Rate this torrent +  |  -
The Kinks In Concert (BBC 1973) mp4

Anonymous and Free Direct Download 300GB+


Torrent info

Name:The Kinks In Concert (BBC 1973) mp4

Total Size: 364.39 MB

Magnet: Magnet Link

Seeds: 0

Leechers: 0

Stream: Watch Online @ Movie4u

Last Updated: 2010-10-05 05:48:29 (Update Now)

Torrent added: 2009-08-24 05:44:30



VPN For Torrents

Torrent Files List


info.txt (Size: 364.39 MB) (Files: 5)

 info.txt

2.56 KB

 Torrent downloaded from Demonoid.com.txt

0.05 KB

 Sample.mp4

3.94 MB

 page.jpg

43.63 KB

 The Kinks - In Concert (BBC 1973).mp4

360.41 MB
 

Announce URL: http://inferno.demonoid.com:3419/announce

Torrent description

BBC Special from 1973

01. Victoria
02. Acute Schizophrenia Paranoia Blues
03. Dedicated Follower of Fashion
04. Lola
05. Holiday
06. Good Golly Miss Molly
07. You Really Got Me
08. All Day and All of the Night
09. Waterloo Sunset
10. The Village Green Preservation Society


The Kinks - In Concert (BBC 1973).mp4
Format : MPEG-4
Format profile : Base Media
Codec ID : isom
File size : 360 MiB
Duration : 30mn 13s
Overall bit rate : 1 667 Kbps
Encoded date : UTC 2009-08-20 18:32:25
Tagged date : UTC 2009-08-20 18:32:25
Video #1
Format : AVC
Format/Info : Advanced Video Codec
Format profile : [email protected]
Format settings, CABAC : Yes
Format settings, ReFrames : 3 frames
Codec ID : avc1
Codec ID/Info : Advanced Video Coding
Duration : 30mn 13s
Bit rate mode : Variable
Bit rate : 1 536 Kbps
Maximum bit rate : 4 037 Kbps
Width : 720 pixels
Height : 576 pixels
Display aspect ratio : 4/3
Frame rate mode : Constant
Frame rate : 25.000 fps
Standard : PAL
Resolution : 24 bits
Colorimetry : 4:2:0
Scan type : Progressive
Bits/(Pixel*Frame) : 0.148
Stream size : 332 MiB (92%)
Writing library : x264 core 67 r1158M 7b6ce6a
Encoding settings : cabac=1 / ref=3 / deblock=1:0:0 / analyse=0x3:0x133 / me=umh / subme=7 / psy_rd=1.0:0.0 / mixed_ref=1 / me_range=16 / chroma_me=1 / trellis=1 / 8x8dct=1 / cqm=0 / deadzone=21,11 / chroma_qp_offset=-2 / threads=1 / nr=0 / decimate=1 / mbaff=0 / bframes=3 / b_pyramid=0 / b_adapt=1 / b_bias=0 / direct=3 / wpredb=1 / keyint=250 / keyint_min=25 / scenecut=40 / rc=2pass / bitrate=1536 / ratetol=1.0 / qcomp=0.60 / qpmin=10 / qpmax=51 / qpstep=4 / cplxblur=20.0 / qblur=0.5 / vbv_maxrate=25000 / vbv_bufsize=25000 / ip_ratio=1.40 / pb_ratio=1.30 / aq=1:1.00
Encoded date : UTC 2009-08-20 18:32:25
Tagged date : UTC 2009-08-20 18:33:54
Audio #2
Format : AAC
Format/Info : Advanced Audio Codec
Format version : Version 4
Format profile : LC
Format settings, SBR : No
Codec ID : 40
Duration : 30mn 13s
Bit rate mode : Variable
Bit rate : 128 Kbps
Maximum bit rate : 136 Kbps
Channel(s) : 2 channels
Channel positions : L R
Sampling rate : 48.0 KHz
Resolution : 16 bits
Stream size : 27.8 MiB (8%)
Language : English
Encoded date : UTC 2009-08-20 18:33:46
Tagged date : UTC 2009-08-20 18:33:54

related torrents

Torrent name

health leech seeds Size

The Kinks In Concert mpg

0 0 603.77 MB 0
 


comments (0)

Main Menu