Anime - Other

Final Fantasy VII 2005 {DvDRiP Xvid} [1337x][blackjesus]

  • Download 5x Faster
  • Download torrent
  • Direct Download
  • Rate this torrent +  |  -
Final Fantasy VII 2005 {DvDRiP Xvid} [1337x][blackjesus]

Anonymous and Free Direct Download 300GB+


Torrent info

Name:Final Fantasy VII 2005 {DvDRiP Xvid} [1337x][blackjesus]

Total Size: 698.99 MB

Magnet: Magnet Link

Seeds: 7

Leechers: 3

Stream: Watch Online @ Movie4u

Last Updated: 2010-12-01 03:07:23 (Update Now)

Torrent added: 2009-08-24 05:40:36



VPN For Torrents

Torrent Files List


BlAcKjEsUs.txt (Size: 698.99 MB) (Files: 5)

 BlAcKjEsUs.txt

0.30 KB

 1337x.org.txt

0.02 KB

 INFO.txt

3.71 KB

 Final Fantasy 7.avi

698.96 MB

 Final_Fantasy_VII-_Advent_Children_.jpg

28.28 KB
 

Announce URL: http://genesis.1337x.org:1337/announce

Torrent description

Final Fantasy VII: Advent Children (2005)




http://www.youtube.com/watch?v=GTLkpZOSEg0
^^Trailer^^

http://www.imdb.com/title/tt0385700/
^^IMDB^^


Release Date: 14 September 2005 (Japan)
Genre: Animation | Action | Sci-Fi | Thriller
Tagline: 2 years later...
Audio: ENGLISH

Two years after the events in "Final Fantasy VII", a disease called 'Seikon-Shoukougun', or 'Geostigma', is spreading through the planet. This disease is believed to have been caused by the body fighting off foreign material that invaded the body two years earlier, at the end of "Final Fantasy VII". Guilt-ridden and haunted by his past, ex-SOLDIER Cloud Strife has decided to live a secluded, solitary life away from his friends while maintaining "Strife's Delivery Service", whose headquarters is located in Tifa Lockheart's bar, the Seventh Heaven. Tifa's bar serves as an orphanage for children stricken with Geostigma. Here, Tifa keeps an eye on Barret's six-year-old daughter, Marlene, while Barret searches the planet for an alternative energy source to the Planet's energy, Mako. One day, Cloud receives a phone call from the former Shinra, Inc. president, Rufus, asking him for protection from a mysterious man named Kadaj. Kadaj, in the meantime, along with his brothers Loz and Yazoo, are searching for their "mother", and seem to believe that Cloud knows where to find her. Meanwhile, Vincent Valentine has been wandering the planet gathering information on Kadaj's scheme, and Cloud and his friends must come together again to fight these new enemies


Video
Format : MPEG-4 Visual
Format profile : Streaming [email protected]
Format settings, BVOP : Yes
Format settings, QPel : No
Format settings, GMC : No warppoints
Format settings, Matrix : Default (H.263)
Muxing mode : Packed bitstream
Codec ID : XVID
Codec ID/Hint : XviD
Duration : 1h 30mn
Bit rate : 958 Kbps
Width : 656 pixels
Height : 368 pixels
Display aspect ratio : 16/9
Frame rate : 25.000 fps
Resolution : 24 bits
Colorimetry : 4:2:0
Scan type : Progressive
Bits/(Pixel*Frame) : 0.159
Stream size : 620 MiB (89%)
Writing library : XviD 1.2.1 (UTC 2008-12-04)

Audio
Format : MPEG Audio
Format version : Version 1
Format profile : Layer 3
Codec ID : 55
Codec ID/Hint : MP3
Duration : 1h 30mn
Bit rate mode : Variable
Bit rate : 109 Kbps
Channel(s) : 2 channels
Sampling rate : 48.0 KHz
Resolution : 16 bits
Stream size : 70.6 MiB (10%)
Alignment : Aligned on interleaves
Interleave, duration : 24 ms (0.60 video frame)
Interleave, preload duration : 169 ms



related torrents

Torrent name

health leech seeds Size
 


comments (0)

Main Menu