Movies - Other

Koyaanisqatsi 1982 DVDRip x264 AC3 KARiNA

  • Download 5x Faster
  • Download torrent
  • Direct Download
  • Rate this torrent +  |  -
Koyaanisqatsi 1982 DVDRip x264 AC3 KARiNA

Free and Direct Download with Usenet.nl 300GB+ free


Torrent info

Name:Koyaanisqatsi 1982 DVDRip x264 AC3 KARiNA

Total Size: 1.70 GB

Magnet: Magnet Link

Seeds: 0

Leechers: 1

Stream: Watch Online @ Movie4u

Last Updated: 2015-10-28 00:22:19 (Update Now)

Torrent added: 2009-08-24 05:33:55





Torrent Files List


Torrent downloaded from Demonoid.com.txt (Size: 1.70 GB) (Files: 3)

 Torrent downloaded from Demonoid.com.txt

0.05 KB

 koyaanisqatsi-KARiNA.nfo

5.16 KB

 Koyaanisqatsi.1982.DVDRip.x264.AC3-KARiNA.mkv

1.70 GB
 

tracker

leech seeds
 

Torrent description

888 d8P d8888 8888888b. d8b 888b 888 d8888
888 d8P d88888 888 Y88b Y8P 8888b 888 d88888
888 d8P d88P888 888 888 88888b 888 d88P888
888d88K d88P 888 888 d88P 888 888Y88b 888 d88P 888
8888888b d88P 888 8888888P" 888 888 Y88b888 d88P 888
888 Y88b d88P 888 888 T88b 888 888 Y88888 d88P 888
888 Y88b d8888888888 888 T88b 888 888 Y8888 d8888888888
888 Y88b d88P 888 888 T88b 888 888 Y888 d88P 888

Koyaanisqatsi.1982.DVDRip.x264.AC3-KARiNA.mkv

Synopsis.

Koyaanisqatsi | USA | 1982 | Directed by Godfrey Reggio

An art-house circuit sensation, this feature-length documentary is visually arresting
and possesses a clear, pro-environmental political agenda. Without a story, dialogue,
or characters, Koyaanisqatsi (1983) (the film's title is a Hopi word roughly translated
into English as "life out of balance") is composed of nature imagery, manipulated in
slow motion, double exposure or time lapse, juxtaposed with footage of humans'
devastating environmental impact on the planet. Starting with an ancient rock wall
painting, the film moves through sequences depicting clouds, waves, and other natural
features, then into man-made landscapes such as buildings, earth-altering construction
machinery, and cars. The message of director Godfrey Reggio is clear: humans are
destroying the planet, and all of human progress is pointlessly foolish. Also notable
for its intense, atmospheric score by new age composer Philip Glass, Koyaanisqatsi
(1983) was a labor of love for Reggio, who spent several years filming it. The film
was followed by sequels, Powaqqatsi (1988), Anima Mundi (1991) and Naqoyqatsi (1999).

IMdB: http://www.imdb.com/title/tt0085809/ | Rating: 8.1 / 10 (11,191 votes)

General.

Complete name : Koyaanisqatsi.1982.DVDRip.x264.AC3-KARiNA.mkv
Format : Matroska
File size : 1.70 GiB
Duration : 1h 22mn
Overall bit rate : 2 950 Kbps
Source : MGM NTSC DVD5

Video.

Format : AVC
Codec ID : V_MPEG4/ISO/AVC
Bit rate : 2 443 Kbps
Nominal bit rate : 2 500 Kbps
Width : 708 pixels
Height : 556 pixels
Display aspect ratio : 16/9
Frame rate : 25.000 fps
Resolution : 24 bits
Colorimetry : 4:2:0
Scan type : Progressive
Bits/(Pixel*Frame) : 0.248
Stream size : 1.41 GiB (83%)
Writing library : x264 core 65

Audio.

Format : AC-3
Bit rate mode : Constant
Bit rate : 448 Kbps
Channel(s) : 6 channels
Channel positions : Front: L C R, Surround: L R, LFE
Sampling rate : 48.0 KHz
Stream size : 265 MiB (15%)
Language : English

Chapters.

00:00:00.000 : :Chapter 1
00:00:48.040 : :Chapter 2
00:03:40.160 : :Chapter 3
00:11:16.200 : :Chapter 4
00:15:46.840 : :Chapter 5
00:22:06.880 : :Chapter 6
00:29:52.520 : :Chapter 7
00:30:29.520 : :Chapter 8
00:37:58.240 : :Chapter 9
00:39:12.440 : :Chapter 10
00:42:24.040 : :Chapter 11
01:03:12.160 : :Chapter 12
01:05:07.600 : :Chapter 13
01:13:37.640 : :Chapter 14
01:17:14.480 : :Chapter 15
01:18:46.200 : :Chapter 16

KARiNA.

related torrents

Torrent name

health leech seeds Size
 

comments (0)

Main Menu