Anime - Other

Disney Le Tresor de la Lampe Perdue ( Net)

  • Download 5x Faster
  • Download torrent
  • Direct Download
  • Rate this torrent +  |  -
Disney Le Tresor de la Lampe Perdue ( Net)

Anonymous and Direct Download 300GB+ free


Torrent info

Name:Disney Le Tresor de la Lampe Perdue ( Net)

Total Size: 650.18 MB

Magnet: Magnet Link

Seeds: 0

Leechers: 0

Stream: Watch Online @ Movie4u

Last Updated: 2015-01-31 07:38:15 (Update Now)

Torrent added: 2009-08-24 05:22:13




Torrent Files List


Disney - Le Tresor de la Lampe Perdue.avi (Size: 650.18 MB) (Files: 1)

 Disney - Le Tresor de la Lampe Perdue.avi

650.18 MB
 

Announce URL:

Torrent description

***ATTENTION***

Pour télécharger ce torrent, vous devez posséder un compte sur Quebec-Team ! et ensuite entrez votre passkey manuellement (http://www.quebec-team.net/announce.php?passkeyici) OU re-télécharger le torrent via le site. Merci!

***ATTENTION***

Lien d'origine : http://www.quebec-team.net/torrents/Anime/torrent/Disney---Le-Tresor-de-la-Lampe-Perdue.html

[img=Disney   Le Tresor de la Lampe Perdue ( Net) preview 0]

Picsou et ses neveux partent en Egypte sur les traces d`une lampe et de son génie.


General
Complete name : /home/sabazios1981/Seed/Quebec-Team/Disney - Le Tresor de la Lampe Perdue.avi
Format : AVI
Format/Info : Audio Video Interleave
File size : 650 MiB
Duration : 1h 7mn
Overall bit rate : 1 343 Kbps

Video
Format : MPEG-4 Visual
Format profile : Streaming [email protected]
Format settings, BVOP : Yes
Format settings, QPel : No
Format settings, GMC : No warppoints
Format settings, Matrix : Default (H.263)
Codec ID : DX50
Codec ID/Hint : DivX 5
Duration : 1h 7mn
Bit rate : 1 204 Kbps
Width : 720 pixels
Height : 400 pixels
Display aspect ratio : 16/9
Frame rate : 25.000 fps
Resolution : 24 bits
Colorimetry : 4:2:0
Scan type : Progressive
Bits/(Pixel*Frame) : 0.167
Stream size : 583 MiB (90%)
Writing library : XviD 1.1.2 (UTC 2006-11-01)

Audio
Format : AC-3
Format/Info : Audio Coding 3
Codec ID : 2000
Duration : 1h 7mn
Bit rate mode : Constant
Bit rate : 128 Kbps
Channel(s) : 2 channels
Channel positions : L R
Sampling rate : 48.0 KHz
Stream size : 62.0 MiB (10%)
Alignment : Aligned on interleaves
Interleave, duration : 32 ms (0.80 video frame)

related torrents

Torrent name

health leech seeds Size
 


comments (0)

Main Menu