Anime - Other

Die Melancholie der Haruhi Suzumiya Vol 2 ADBT

  • Download 5x Faster
  • Download torrent
  • Direct Download
  • Rate this torrent +  |  -
Die Melancholie der Haruhi Suzumiya Vol 2 ADBT

Anonymous and Direct Download 300GB+ free


Torrent info

Name:Die Melancholie der Haruhi Suzumiya Vol 2 ADBT

Total Size: 967.48 MB

Magnet: Magnet Link

Seeds: 0

Leechers: 0

Stream: Watch Online @ Movie4u

Last Updated: 2016-03-11 17:01:45 (Update Now)

Torrent added: 2009-08-24 05:18:19




Torrent Files List


Haruhi Suzumiya Vol.2 - Label.jpg (Size: 967.48 MB) (Files: 10)

 Haruhi Suzumiya Vol.2 - Label.jpg

1.22 MB

 Haruhi Suzumiya Vol.2 - Cover.jpg

4.90 MB

 Die Melancholie der Haruhi Suzumiya 07.srt

29.52 KB

 Die Melancholie der Haruhi Suzumiya 07.avi

240.44 MB

 Die Melancholie der Haruhi Suzumiya 06.srt

31.10 KB

 Die Melancholie der Haruhi Suzumiya 06.avi

239.49 MB

 Die Melancholie der Haruhi Suzumiya 05.srt

37.36 KB

 Die Melancholie der Haruhi Suzumiya 05.avi

240.24 MB

 Die Melancholie der Haruhi Suzumiya 04.srt

35.62 KB

 Die Melancholie der Haruhi Suzumiya 04.avi

241.07 MB
 

tracker

leech seeds
 

Torrent description


Als Suzumiya Haruhi sich das erste mal in ihrer neuen Schule vorstellen soll, erklärt sie ihren neuen Schulkameraden sofort, dass sie kein Interesse an alltäglichen Dingen hat. Was sie interessiert sind Aliens, Menschen aus der Zukunft, aussergewöhnliche Fähigkeiten und gleicherlei.

Sofort gründet sie das SOS Dan, einen Klub der sich mit aussergewöhnlichen Dingen beschäftigen soll und Kyon wird von ihr als erstes Mitglied auserkoren. Sehr zu seinem Leidwesen, denn ist er doch genau das Gegenteil von Haruhi und hat sich nie besonders für solche Sachen interessiert.

Doch was niemand ahnt, Haruhi, die von aussen als ein hübsches Mädchen mit einem unglaublichen Ehrgeiz und Willen wirkt, hat die Fähigkeit Dinge zu verändern wie es ihr gefällt. Eine Fähigkeit von der sie nicht mal selbst etwas weiß und die gleichermaßen viel Unruhe stiften kann wenn sie sich mal wieder etwas in den Kopf gesetzt hat.

Vielen dank an [A-M] Aco-Chan




Allgemein

Format : AVI
Format/Info : Audio Video Interleave
Dateigre : 241 MiB
Duration : 24min
Gesamte Bitrate : 1392 Kbps
Verwendetes Programm : VirtualDubMod 1.5.10.2 (build 2542/release)
verwendete Encoder-Bibliothek : VirtualDubMod build 2542/release

Video
Format : MPEG-4 Visual
Format profile : Streaming [email protected]
Format settings, BVOP : Ja
Format settings, QPel : Nein
Format settings, GMC : No warppoints
Format settings, Matrix : Default
Muxing mode : Packet Bitstream
Codec ID : XVID
Codec ID/Hint : XviD
Duration : 24min
Bitrate : 1058 Kbps
Breite : 720 Pixel
Höhe : 400 Pixel
Bildseitenverhältnis : 16/9
Bildwiederholungsrate : 23.976 FPS
Auflösung : 8 bits
Colorimetry : 4:2:0
Scan type : Progressive
Bits/(Pixel*Frame) : 0.153
Stream size : 183 MiB (76)
verwendete Encoder-Bibliothek : XviD 1.1.2 (UTC 2006-11-01)

Audio #1
Format : MPEG Audio
Format version : Version 1
Format profile : Layer 3
Codec ID : 55
Codec ID/Hint : MP3
Duration : 24min
Bitraten-Modus : Constant
Bitrate : 160 Kbps
Kanäle : 2 Kanäle
Samplingrate : 48.0 KHz
Auflösung : 16 bits
Video0 Verzögerung : 672ms
Stream size : 27.7 MiB (11)
Alignment : Split accross interleaves
Interleave, duration : 42 ms (1.00 video frame)
Interleave, preload duration : 504 ms

Audio #2
Format : MPEG Audio
Format version : Version 1
Format profile : Layer 3
Codec ID : 55
Codec ID/Hint : MP3
Duration : 24min
Bitraten-Modus : Constant
Bitrate : 160 Kbps
Kanäle : 2 Kanäle
Samplingrate : 48.0 KHz
Auflösung : 16 bits
Video0 Verzögerung : 672ms
Stream size : 27.7 MiB (11)
Alignment : Split accross interleaves
Interleave, duration : 42 ms (1.00 video frame)
Interleave, preload duration : 504 ms

Audio: deutsch, japanisch
Untertitel: deutsch

related torrents

Torrent name

health leech seeds Size
 


comments (0)

Main Menu