Anime - Other

Casshern Sins(2008)XviD[SR][Jp Ro sub]

  • Download 5x Faster
  • Download torrent
  • Direct Download
  • Rate this torrent +  |  -
Casshern Sins(2008)XviD[SR][Jp Ro sub]

Anonymous and Direct Download 300GB+ free


Torrent info

Name:Casshern Sins(2008)XviD[SR][Jp Ro sub]

Total Size: 4.74 GB

Magnet: Magnet Link

Seeds: 1

Leechers: 0

Stream: Watch Online @ Movie4u

Last Updated: 2010-07-08 20:34:38 (Update Now)

Torrent added: 2009-08-24 04:28:36




Torrent Files List


Casshern.Sins.24.[SR][fbb3b11e].Pentru.Florile.care.Ratacesc.si.Infloresc.avi (Size: 4.74 GB) (Files: 24)

 Casshern.Sins.24.[SR][fbb3b11e].Pentru.Florile.care.Ratacesc.si.Infloresc.avi

199.56 MB

 Casshern.Sins.23.[SR][08ce2b7e].Cei.Care.Se.Vor.Intoarce.avi

199.59 MB

 Casshern.Sins.22.[SR][7f03b5d2].Picatura.Numita.Eternitate.avi

199.71 MB

 Casshern.Sins.21.[SR][a18c6edb].Paradisul.Disperarii.avi

199.58 MB

 Casshern.Sins.20.[SR][51e4d991].Pentru.Cine.Infloresc.Florile.avi

199.57 MB

 Casshern.Sins.19.[SR][86cc9970].Ai.Incredere.in.Floarea.care.Traieste.in.Inima.Ta.avi

199.59 MB

 Casshern.Sins.18.[SR][a1188f49].Timp.Petrecut.Traind.-.Timp.de.Acum.Inainte.avi

199.39 MB

 Casshern.Sins.17.[SR][55325819].Leaganul.de.Sticla.avi

199.59 MB

 Casshern.Sins.16v2.[SR][83c2a300].Pentru.Puterea.de.a.Crede.avi

199.49 MB

 Casshern.Sins.15.[SR][7e2a7868].Zeul.Mortii.Dune.avi

199.36 MB

 Casshern.Sins.14.[SR][82ac8852].Adevarul.Lumineaza.Intunericul.avi

199.37 MB

 Casshern.Sins.13.[SR][e80814cf].Trecutul.va.Rasari.Inaintea.Ta.avi

199.48 MB

 Casshern.Sins.12.[SR][dea0981b].Transformand.Timpul.Vietii.in.Culoare.avi

228.47 MB

 Casshern.Sins.11.[SR][8c139fd9].Pentru.Propria.Misiune.avi

206.04 MB

 Casshern.Sins.10.[SR][877f38cd].Omul.Intemnitat.de.Trecut.avi

199.51 MB

 Casshern.Sins.09.[SR][29c25f18].Floarea.care.Infloreste.in.Valea.Ruinei.avi

199.51 MB

 Casshern.Sins.08.[SR][58c457b9].Imnul.Sperantei.avi

205.82 MB

 Casshern.Sins.07.[SR][2b5db17a].Femeia.din.Turnul.Inalt.avi

200.04 MB

 Casshern.Sins.06.[SR][2828419b].Reintalnirea.cu.Destinul.avi

200.22 MB

 Casshern.Sins.05.[SR][e4e76155].Omul.Care.A.Ucis.Soarele.Numit.Luna.avi

199.58 MB

 Casshern.Sins.04.[SR][8ff9d495].Ingerul.Ruinei.avi

200.04 MB

 Casshern.Sins.03.[SR][31c7faeb].La.Sfarsitul.Agoniei.avi

224.46 MB

 Casshern.Sins.02.[SR][a62b5997].Lumea.Este.Plina.de.Tipetele.Mortii.avi

199.92 MB

 Casshern.Sins.01.[SR][1ba86583].La.Sfarsitul.Lumii.avi

199.48 MB
 

Announce URL: http://tracker.torrentbox.com:2710/announce

Torrent description

http://anidb.net/perl-bin/animedb.pl?show=anime&aid=6032
http://www.animenewsnetwork.com/encyclopedia/anime.php?id=9702
http://www.animenfo.com/animetitle,4381,weuyrx,casshern_sins.html
http://www.imdb.com/title/tt0235119/
http://en.wikipedia.org/wiki/Casshern_Sins


Casshern Sins (2008)


Main Title : Casshern Sins
Director : Shigeyasu Yamauchi
Categories : Action, Androids, Angst, Mecha, Post-apocalyptic, SciFi, Violence (anidb)
Genres : action, drama, science fiction (ANN)
Type : TV Series, 24 episodes
Running time : 24 minutes
Year : 02.10.2008 till 16.03.2009
Producer : MADHOUSE
Group : Storm Riders Subs [SR] (http://stormriders-subs.co.cc/)

Plot summary:
After decades since the original anime series, the cybernetic warrior returns in this franchise reboot,
Casshern Sins. In a world where the powerful robot leader known as Braiking Boss rule over humanity with an iron
fist, a mysterious girl named Luna is summoned by the people for salvation. To retaliate against this potential
threat, Braiking sends 3 of his most powerful cyborgs, Casshern, Dio and Reda to dispose of her. Casshern manages
to kill Luna, plunging the world into a slow descent of annhilation. Hundreds of years later, humanity is almost
extinct. Robots constantly replace their body parts, fearing the corrosion of rust: their only form of death. In
this wretched time and place, Casshern returns after a lengthy disappearance since his murder of Luna. Having
lost his memory, Casshern now defends the humans from the robots, and find out his true identity and purpose.
Casshern, a subordinate of Braiking Boss, was sent to assassinate Luna after she appeared as a savior to the
human race. After the assassination, Casshern disappears with his memory lost. Years later, he resurfaces to
fight off anti-human robots in a post-apocalyptic Earth where humans and robots are dying due to "The Ruin", an
unknown phenomenon which kills off robots by rotting their bodies while forcing humans to survive by hiding. (ANN)

------------------------------------------------------------------------------------------------

Media Info: [from MediaInfo v0.7.11]
General
Complete name : Casshern.Sins.01.[SR][1ba86583].La.Sfarsitul.Lumii.avi
Format : AVI
Format/Info : Audio Video Interleave
File size : 199 MiB
Duration : 23mn 59s
Overall bit rate : 1 163 Kbps
Writing application : VirtualDubMod 1.5.10.2 (build 2540/release)
Writing library : VirtualDubMod build 2540/release

Video
Format : MPEG-4 Visual
Format profile : Streaming [email protected]
Format settings, BVOP : Yes
Format settings, QPel : No
Format settings, GMC : No warppoints
Format settings, Matrix : Default
Muxing mode : Packed bitstream
Codec ID : XVID
Codec ID/Hint : XviD
Duration : 23mn 59s
Bit rate : 1 025 Kbps
Width : 704 pixels
Height : 400 pixels
Display aspect ratio : 16/9
Frame rate : 23.976 fps
Resolution : 24 bits
Colorimetry : 4:2:0
Scan type : Progressive
Bits/(Pixel*Frame) : 0.152
Stream size : 176 MiB (88%)
Writing library : XviD 1.1.2 (UTC 2006-11-01)

Audio
Format : MPEG Audio
Format version : Version 1
Format profile : Layer 3
Codec ID : 55
Codec ID/Hint : MP3
Duration : 23mn 59s
Bit rate mode : Constant
Bit rate : 128 Kbps
Channel(s) : 2 channels
Sampling rate : 48.0 KHz
Resolution : 16 bits
Stream size : 22.0 MiB (11%)
Alignment : Split accross interleaves
Interleave, duration : 42 ms (1.00 video frame)
Interleave, preload duration : 500 ms
Writing library : LAME3.96.1

Text
Language : Romanian

------------------------------------------------------------------------------------------------

CRC32: [Lupas Rename v5.0]

Codecs:
Download K-Lite Mega Codec Pack (http ://www.free-codecs.com/download/K_Lite_Mega_Codec_Pack.htm)

Media players:
Download Media Player Classic (http ://www.free-codecs.com/download/Media_Player_Classic.htm)
Download KMPlayer (http ://www.free-codecs.com/download/KMPlayer.htm)
Download Gom Player (http ://www.free-codecs.com/download/Gom_Player.htm)

Trailer:
http://www.youtube.com/watch?v=hKw8QwhexVE

related torrents

Torrent name

health leech seeds Size
 


comments (0)

Main Menu