Metal

Angra Aurora Consurgens (2006)[Eac Flac][Rock City]

  • Download 5x Faster
  • Download torrent
  • Direct Download
  • Rate this torrent +  |  -
Angra Aurora Consurgens (2006)[Eac Flac][Rock City]

Free and Direct Download with Usenet.nl 300GB+ free


Torrent info

Name:Angra Aurora Consurgens (2006)[Eac Flac][Rock City]

Total Size: 385.44 MB

Magnet: Magnet Link

Seeds: 0

Leechers: 0

Stream: Watch Online @ Movie4u

Last Updated: 2015-09-11 03:21:34 (Update Now)

Torrent added: 2009-08-24 04:26:01





Torrent Files List


Torrent downloaded from Demonoid.com.txt (Size: 385.44 MB) (Files: 9)

 Torrent downloaded from Demonoid.com.txt

0.05 KB

 Rock City Crew.png

188.83 KB

 Info.txt

2.32 KB

 Cd.jpg

671.81 KB

 Front.jpg

923.50 KB

 Angra - Aurora Consurgens.log

2.79 KB

 Back.jpg

476.96 KB

 Angra - Aurora Consurgens.flac

383.23 MB

 Angra - Aurora Consurgens.cue

1.12 KB
 

tracker

leech seeds
 

Torrent description

Rock City Crew Release

Rip Infos:

Exact Audio Copy V0.99 prebeta 4 from 23. January 2008

EAC extraction logfile from 25. January 2009, 10:29

Angra / Aurora Consurgens

Used drive : HL-DT-STDVDRAM GSA-H42L Adapter: 1 ID: 0

Read mode : Secure
Utilize accurate stream : Yes
Defeat audio cache : Yes
Make use of C2 pointers : No

Read offset correction : 667
Overread into Lead-In and Lead-Out : No
Fill up missing offset samples with silence : Yes
Delete leading and trailing silent blocks : No
Null samples used in CRC calculations : Yes
Used interface : Installed external ASPI interface

Used output format : User Defined Encoder
Selected bitrate : 1024 kBit/s
Quality : High
Add ID3 tag : No
Command line compressor : C:\Programmi\Exact Audio Copy\FLAC\FLAC.EXE
Additional command line options : -8 -V -T "ARTIST=%a" -T "TITLE=%t" -T "ALBUM=%g" -T "DATE=%y" -T "TRACKNUMBER=%n" -T "GENRE=%m" -T "COMMENT=%e" %s -o %d


TOC of the extracted CD

Track | Start | Length | Start sector | End sector
---------------------------------------------------------
1 | 0:00.00 | 4:30.45 | 0 | 20294
2 | 4:30.45 | 5:27.66 | 20295 | 44885
3 | 9:58.36 | 5:38.17 | 44886 | 70252
4 | 15:36.53 | 3:29.66 | 70253 | 85993
5 | 19:06.44 | 4:21.50 | 85994 | 105618
6 | 23:28.19 | 6:02.03 | 105619 | 132771
7 | 29:30.22 | 7:09.15 | 132772 | 164961
8 | 36:39.37 | 6:32.56 | 164962 | 194417
9 | 43:12.18 | 4:25.46 | 194418 | 214338
10 | 47:37.64 | 3:09.67 | 214339 | 228580


Range status and errors

Selected range

Filename C:\Documents and Settings\Maste75\Documenti\Downloads\Angra - Aurora Consurgens (2006)[Eac Flac][Rock City]\Angra - Aurora Consurgens.wav

Peak level 100.0 %
Range quality 100.0 %
Test CRC 26007100
Copy CRC 26007100
Copy OK

No errors occurred


AccurateRip summary

Track 1 accurately ripped (confidence 6) [4C5E2756]
Track 2 accurately ripped (confidence 6) [5BB42821]
Track 3 accurately ripped (confidence 6) [4F88D7AB]
Track 4 accurately ripped (confidence 6) [C68D006F]
Track 5 accurately ripped (confidence 6) [244A32C1]
Track 6 accurately ripped (confidence 6) [FF496C1A]
Track 7 accurately ripped (confidence 6) [BF8C6D3F]
Track 8 accurately ripped (confidence 6) [21F4AF27]
Track 9 accurately ripped (confidence 6) [9C9D701F]
Track 10 accurately ripped (confidence 5) [4F6A8314]

All tracks accurately ripped

End of status report

related torrents

Torrent name

health leech seeds Size
 

comments (0)

Main Menu