TV - Other

STRAWBERRY SHORTCAKE MEET STRAWBERRY SHORTCAKE] [DVDRIP][ENG] KIDZCORNER&J T R

  • Download 5x Faster
  • Download torrent
  • Direct Download
  • Rate this torrent +  |  -

Torrent info

Name:STRAWBERRY SHORTCAKE MEET STRAWBERRY SHORTCAKE] [DVDRIP][ENG] KIDZCORNER&J T R

Total Size: 415.73 MB

Magnet: Magnet Link

Seeds: 0

Leechers: 0

Stream: Watch Online @ Movie4u

Last Updated: 2016-11-26 02:29:36 (Update Now)

Torrent added: 2009-08-24 04:16:50



VPN For Torrents

Torrent Files List


Tracked by moviesb4time.biz.txt (Size: 415.73 MB) (Files: 5)

 Tracked by moviesb4time.biz.txt

1.35 KB

 Torrent downloaded from Demonoid.com.txt

0.05 KB

 550197_DV_L_F.JPG

36.63 KB

 550197_DV_L_B.JPG

39.71 KB

 MEET_STRAWBERRY_SHORTCAKE

  TITLE01.avi

415.65 MB
 

tracker

leech seeds
 

Torrent description

Join your berry special friend, Strawberry Shortcake, on her very first adventure!

It's a berry merry birthday! Strawberry Shortcake is planning a first birthday party for her sister, Apple Dumplin' so she sets off on an adventure to find everything she needs for the perfect celebration. Her search takes her to some fun and fanciful places, like Cookie Corners, home of the amazing cookie-making machine. And she meets some delightful new friends, like Orange Blossom, Angel Cake and Ginger Snap.


General
Complete name : C:\Users\joker\Documents\STRAWBERRY SHORTCAKE-MEET STRAWBERRY SHORTCAKE]-[DVDRIP][ENG]-KIDZCORNER&J.T.R\MEET_STRAWBERRY_SHORTCAKE\TITLE01.avi
Format : AVI
Format/Info : Audio Video Interleave
File size : 416 MiB
Duration : 43mn 21s
Overall bit rate : 1 340 Kbps

Video
Format : MPEG-4 Visual
Format profile : [email protected]
Format settings, BVOP : No
Format settings, QPel : No
Format settings, GMC : No warppoints
Format settings, Matrix : Default
Codec ID : XVID
Codec ID/Hint : XviD
Duration : 43mn 21s
Bit rate : 1 200 Kbps
Width : 640 pixels
Height : 480 pixels
Display aspect ratio : 4/3
Frame rate : 25.000 fps
Resolution : 24 bits
Colorimetry : 4:2:0
Scan type : Progressive
Bits/(Pixel*Frame) : 0.156
Stream size : 372 MiB (90%)
Writing library : Magic0432

Audio
Format : MPEG Audio
Format version : Version 1
Format profile : Layer 3
Codec ID : 55
Codec ID/Hint : MP3
Duration : 43mn 21s
Bit rate mode : Constant
Bit rate : 128 Kbps
Channel(s) : 2 channels
Sampling rate : 44.1 KHz
Resolution : 16 bits
Stream size : 39.7 MiB (10%)
Alignment : Aligned on interleaves
Interleave, duration : 26 ms (0.65 video frame)
Writing library : LAME3.97


related torrents

Torrent name

health leech seeds Size

Meet Strawberry Shortcake

0 0 692.88 MB 0
 


comments (0)

Main Menu