TV - Other

STRAWBERRY SHORTCAKE HORSE TALES[DVDRIP][ENG] KIDZCORNER&J T R

  • Download 5x Faster
  • Download torrent
  • Direct Download
  • Rate this torrent +  |  -
STRAWBERRY SHORTCAKE HORSE TALES[DVDRIP][ENG] KIDZCORNER&J T R

Anonymous and Direct Download 300GB+ free


Torrent info

Name:STRAWBERRY SHORTCAKE HORSE TALES[DVDRIP][ENG] KIDZCORNER&J T R

Total Size: 415.68 MB

Magnet: Magnet Link

Seeds: 0

Leechers: 0

Stream: Watch Online @ Movie4u

Last Updated: 2014-02-05 08:05:56 (Update Now)

Torrent added: 2009-08-24 04:16:45




Torrent Files List


Tracked by moviesb4time.biz.txt (Size: 415.68 MB) (Files: 5)

 Tracked by moviesb4time.biz.txt

1.35 KB

 Torrent downloaded from Demonoid.com.txt

0.05 KB

 564637_DV_L_F.JPG

33.74 KB

 564637_DV_L_B.JPG

34.31 KB

 STRAW_SHORT_HORSE_TALES

  TITLE01.avi

415.61 MB
 

Announce URL:

Torrent description



When Honey Pie Pony hurts her leg, she must stay in bed and rest instead of heading off on the grand adventure she'd been so looking forward to.

To calm down the grumpy and impatient Honey Pie Pony, Strawberry Shortcake and her friends work together telling stories and singing songs to cheer Honey Pie up and make her feel better. A day that started so badly becomes berry special indeed!


General
Complete name : C:\Users\joker\Desktop\STRAWBERRY SHORTCAKE-HORSE TALES[DVDRIP][ENG]-KIDZCORNER&J.T.R\STRAW_SHORT_HORSE_TALES\TITLE01.avi
Format : AVI
Format/Info : Audio Video Interleave
File size : 416 MiB
Duration : 43mn 21s
Overall bit rate : 1 340 Kbps

Video
Format : MPEG-4 Visual
Format profile : [email protected]
Format settings, BVOP : No
Format settings, QPel : No
Format settings, GMC : No warppoints
Format settings, Matrix : Default
Codec ID : XVID
Codec ID/Hint : XviD
Duration : 43mn 21s
Bit rate : 1 200 Kbps
Width : 640 pixels
Height : 480 pixels
Display aspect ratio : 4/3
Frame rate : 25.000 fps
Resolution : 24 bits
Colorimetry : 4:2:0
Scan type : Progressive
Bits/(Pixel*Frame) : 0.156
Stream size : 372 MiB (90%)
Writing library : Magic0432

Audio
Format : MPEG Audio
Format version : Version 1
Format profile : Layer 3
Codec ID : 55
Codec ID/Hint : MP3
Duration : 43mn 21s
Bit rate mode : Constant
Bit rate : 128 Kbps
Channel(s) : 2 channels
Sampling rate : 44.1 KHz
Resolution : 16 bits
Stream size : 39.7 MiB (10%)
Alignment : Aligned on interleaves
Interleave, duration : 26 ms (0.65 video frame)
Writing library : LAME3.97




related torrents

Torrent name

health leech seeds Size
 


comments (0)

Main Menu