TV - Other

STRAWBERRY SHORTCAKE BEST PETS YET[DVDRIP][ENG] KIDZCORNER&J T R

  • Download 5x Faster
  • Download torrent
  • Direct Download
  • Rate this torrent +  |  -
STRAWBERRY SHORTCAKE BEST PETS YET[DVDRIP][ENG] KIDZCORNER&J T R

Anonymous and Direct Download 300GB+ free


Torrent info

Name:STRAWBERRY SHORTCAKE BEST PETS YET[DVDRIP][ENG] KIDZCORNER&J T R

Total Size: 408.58 MB

Magnet: Magnet Link

Seeds: 0

Leechers: 0

Stream: Watch Online @ Movie4u

Last Updated: 2011-03-19 16:30:43 (Update Now)

Torrent added: 2009-08-24 04:16:36




Torrent Files List


Tracked by moviesb4time.biz.txt (Size: 408.58 MB) (Files: 4)

 Tracked by moviesb4time.biz.txt

1.35 KB

 Torrent downloaded from Demonoid.com.txt

0.05 KB

 51E5rqz2dBL._SS500_.jpg

53.33 KB

 STRAWBERRY_SHORTCAKE

  best pets yet.avi

408.53 MB
 

Announce URL:

Torrent description

Best Pets Yet
Join your "berry" special friend, Strawberry Shortcake, for more delightful fun! Strawberry takes in a little lost dog named Pupcake, but her spoiled house cat, Custard, does everything to make the peppy puppy want to leave! Then sneaky Peppermint Fizz cheats so that her pet, Cola Chameleon, wins a pet competition, only to learn that no one has to "win" anything in order to be happy and have fun!


General
Complete name : C:\Users\joker\Desktop\STRAWBERRY SHORTCAKE-BEST PETS YET[DVDRIP][ENG]-KIDZCORNER&J.T.R\STRAWBERRY_SHORTCAKE\best pets yet.avi
Format : AVI
Format/Info : Audio Video Interleave
File size : 409 MiB
Duration : 42mn 36s
Overall bit rate : 1 340 Kbps

Video
Format : MPEG-4 Visual
Format profile : [email protected]
Format settings, BVOP : No
Format settings, QPel : No
Format settings, GMC : No warppoints
Format settings, Matrix : Default
Codec ID : XVID
Codec ID/Hint : XviD
Duration : 42mn 36s
Bit rate : 1 200 Kbps
Width : 640 pixels
Height : 480 pixels
Display aspect ratio : 4/3
Frame rate : 25.000 fps
Resolution : 24 bits
Colorimetry : 4:2:0
Scan type : Progressive
Bits/(Pixel*Frame) : 0.156
Stream size : 366 MiB (90%)
Writing library : Magic0432

Audio
Format : MPEG Audio
Format version : Version 1
Format profile : Layer 3
Codec ID : 55
Codec ID/Hint : MP3
Duration : 42mn 36s
Bit rate mode : Constant
Bit rate : 128 Kbps
Channel(s) : 2 channels
Sampling rate : 44.1 KHz
Resolution : 16 bits
Stream size : 39.0 MiB (10%)
Alignment : Aligned on interleaves
Interleave, duration : 26 ms (0.65 video frame)
Writing library : LAME3.97


related torrents

Torrent name

health leech seeds Size
 


comments (0)

Main Menu