TV - Other

Squidbillies S04E06 TVRip XviD

  • Download 5x Faster
  • Download torrent
  • Direct Download
  • Rate this torrent +  |  -
Squidbillies S04E06 TVRip XviD

Anonymous and Direct Download 300GB+ free


Torrent info

Name:Squidbillies S04E06 TVRip XviD

Total Size: 99.28 MB

Magnet: Magnet Link

Seeds: 0

Leechers: 0

Stream: Watch Online @ Movie4u

Last Updated: 2016-12-01 17:25:56 (Update Now)

Torrent added: 2009-08-24 03:57:41




Torrent Files List


Squidbillies - S04E06.avi (Size: 99.28 MB) (Files: 2)

 Squidbillies - S04E06.avi

99.28 MB

 Torrent_downloaded_from_Demonoid.com.txt

0.05 KB
 

tracker

leech seeds
 

Torrent description

Season 04 Episode 06 - "Big Gay Throwdown"

http://wiki.adultswim.com/xwiki/bin/Squidbillies/Season+4

http://en.wikipedia.org/wiki/List_of_Squidbillies_episodes#Season_4:_2009


General:
Format : AVI
Format/Info : Audio Video Interleave
File size
: 99.3 MiB
Duration : 11mn 16s
Overall bit rate : 1 230 Kbps

Video:
Format : MPEG-4 Visual
Format profile : Streaming [email protected]
Format settings, BVOP : Yes
Format settings, QPel : No
Format settings, GMC : No warppoints
Format settings, Matrix : Custom
Codec ID : XVID
Codec ID/Hint : XviD
Duration : 11mn 16s
Bit rate : 1 114 Kbps
Width : 640 pixels
Height : 384 pixels
Display aspect ratio : 1.667
Frame rate : 29.970 fps
Resolution : 24 bits
Colorimetry : 4:2:0
Scan type : Progressive
Bits/(Pixel*Frame) : 0.151
Stream size : 89.9 MiB (91%)
Writing library : XviD 50

Audio:
Format : MPEG Audio
Format version : Version 1
Format profile : Layer 3
Codec ID : 55
Codec ID/Hint : MP3
Duration : 11mn 16s
Bit rate mode : Variable
Bit rate : 103 Kbps
Minimum bit rate : 112 Kbps
Channel(s) : 2 channels
Sampling rate : 44.1 KHz
Resolution : 16 bits
Stream size : 8.29 MiB (8%)
Alignment : Aligned on interleaves
Interleave, duration : 26 ms (0.78 video frame)
Interleave, preload duration : 511 ms
Writing library : LAME3.98r
Encoding settings : ABR

related torrents

Torrent name

health leech seeds Size
 


comments (0)

Main Menu