Anime - Other

Bartok le magnifique VFi DvdRip By Mizy ( Net)

  • Download 5x Faster
  • Download torrent
  • Direct Download
  • Rate this torrent +  |  -
Bartok le magnifique VFi DvdRip By Mizy ( Net)

Anonymous and Free Direct Download 300GB+


Torrent info

Name:Bartok le magnifique VFi DvdRip By Mizy ( Net)

Total Size: 699.88 MB

Magnet: Magnet Link

Seeds: 0

Leechers: 0

Stream: Watch Online @ Movie4u

Last Updated: 2010-10-04 13:48:06 (Update Now)

Torrent added: 2009-08-24 03:57:40



VPN For Torrents

Torrent Files List


Bartok.Le.Magnifique.FRENCH.DVDRIP.XVID-KzK.avi (Size: 699.88 MB) (Files: 2)

 Bartok.Le.Magnifique.FRENCH.DVDRIP.XVID-KzK.avi

699.88 MB

 Bartok le magnifique.nfo

2.25 KB
 

Announce URL: http://www.quebec-team.net/announce.php

Torrent description

***ATTENTION***

Pour télécharger ce torrent, vous devez posséder un compte sur Quebec-Team ! et ensuite entrez votre passkey manuellement (http://www.quebec-team.net/announce.php?passkeyici) OU re-télécharger le torrent via le site. Merci!

***ATTENTION***

Lien d'origine : http://www.quebec-team.net/torrents/Anime/torrent/Bartok-le-magnifique-VFi-DvdRip-By-Mizy.html

[aligner=centre][taille=24][couleur=mediumblue]Bartok le magnifique (Bartok the Magnificent)[/couleur][/taille][/aligner]

[aligner=centre]

Bartok le magnifique VFi DvdRip By Mizy ( Net) preview 0[/aligner]



[taille=24][aligner=centre][couleur=fuchsia]Information sur le film :[/couleur][/aligner][/taille]

[couleur=mediumblue][aligner=centre]Réalisateur : Don Bluth - Gary Goldman

language : Version francaise Internationnal

Acteurs : Catherine O'Hara - Tim Curry - Andrea Martin - Hank Azaria - Kelsey Grammer

Scénario : Jay Lacopo

Durée : 1h 05min

Date de sortie : 16 novembre 1999 (États-Unis)

Année de production : 2003

Studio : Fox Pathé Europa
[/aligner][/couleur]



[aligner=centre]-----------------------------------------------

[taille=24][couleur=fuchsia]Synopsis :[/couleur][/taille]

[couleur=mediumblue]Bartok, devenu artiste de rue à Moscou avec l'ours Zozi comme collègue, mène une vie paisible et est adulé par le peuple russe qui ne se lasse pas de ses tours et de ses théâtrales performances héroïques. Mais lorsque le prince Ivan est enlevé, laissant comme héritière du trône la Régente Ludmilla qui semble dangereuse, Bartok se verra contraint de partir à sa recherche, chez la suspecte sorcière Baba Yaga, malgré la frayeur qu'il éprouve à cette idée. Il se verra attribuer une suite d'épreuves toutes plus infernales les unes que les autres, et les rebondissements du film ne manqueront pas de surprendre, lui comme les (jeunes) spectateurs.
[/couleur]




[couleur=mediumblue]-----------------------------------------------
[/aligner][/couleur]


[aligner=centre]Bartok le magnifique VFi DvdRip By Mizy ( Net) preview 1[/aligner]



[couleur=mediumblue]Video
Format : MPEG-4 Visual
Format profile : Streaming Video@L1
Format settings, BVOP : Yes
Format settings, QPel : No
Format settings, GMC : No warppoints
Format settings, Matrix : Default
Muxing mode : Packed bitstream
Codec ID : XVID
Codec ID/Hint : XviD
Duration : 1h 5mn
Bit rate : 1 360 Kbps
Width : 576 pixels
Height : 400 pixels
Display aspect ratio : 1.440
Frame rate : 25.000 fps
Resolution : 24 bits
Colorimetry : 4:2:0
Scan type : Progressive
Bits/(Pixel*Frame) : 0.236
Stream size : 636 MiB (91%)
Writing library : XviD 1.1.0 (UTC 2005-11-22)

Audio
Format : MPEG Audio
Format version : Version 1
Format profile : Layer 3
Codec ID : 55
Codec ID/Hint : MP3
Duration : 1h 5mn
Bit rate mode : Constant
Bit rate : 128 Kbps
Minimum bit rate : 128 Kbps
Channel(s) : 2 channels
Sampling rate : 48.0 KHz
Resolution : 16 bits
Stream size : 59.8 MiB (9%)
Alignment : Aligned on interleaves
Interleave, duration : 40 ms (1.00 video frame)
Interleave, preload duration : 504 ms
Writing library : LAME3.97b
Encoding settings : CBR
[/couleur]

related torrents

Torrent name

health leech seeds Size
 


comments (0)

Main Menu