Anime - Other

Avengers FRENCH BDRiP XviD up mavric "VFF" ( Net)

  • Download 5x Faster
  • Download torrent
  • Direct Download
  • Rate this torrent +  |  -
Avengers FRENCH BDRiP XviD up mavric "VFF" ( Net)

Free and Direct Download with Usenet.nl 300GB+ free


Torrent info

Name:Avengers FRENCH BDRiP XviD up mavric "VFF" ( Net)

Total Size: 696.89 MB

Magnet: Magnet Link

Seeds: 0

Leechers: 0

Stream: Watch Online @ Movie4u

Last Updated: 0000-00-00 00:00:00 (Update Now)

Torrent added: 2009-08-24 03:54:00





Torrent Files List


Ultimate Avengers.FRENCH.BDRiP.XviD-MAVRIC.avi (Size: 696.89 MB) (Files: 1)

 Ultimate Avengers.FRENCH.BDRiP.XviD-MAVRIC.avi

696.89 MB
 

Announce URL: http://www.quebec-team.net/announce.php

Torrent description

***ATTENTION***

Pour télécharger ce torrent, vous devez posséder un compte sur Quebec-Team ! et ensuite entrez votre passkey manuellement (http://www.quebec-team.net/announce.php?passkeyici) OU re-télécharger le torrent via le site. Merci!

***ATTENTION***

Lien d'origine : http://www.quebec-team.net/torrents/Anime/torrent/Avengers.FRENCH.BDRiP.XviD-up-mavric-_VFF_.html

[taille=24][aligner=centre]Ultimate Avengers.FRENCH.BDRiP.XviD up mavric "VFF" [/aligner][/taille]




[aligner=centre]Avengers FRENCH BDRiP XviD up mavric "VFF" ( Net) preview 0[/aligner]

[aligner=centre]Avengers FRENCH BDRiP XviD up mavric "VFF" ( Net) preview 1[/aligner]

[aligner=centre]Pour faire face à une menace extraterrestre, une équipe de super-héros est créée et menée par le Capitaine America

[/aligner]


[aligner=centre]Avengers FRENCH BDRiP XviD up mavric "VFF" ( Net) preview 2[/aligner]


[aligner=centre]
Date de sortie : inconnue
Réalisé par Bob Richardson
Avec Justin Gross, Grey Delisle, Michael Massee
Film américain.
Genre : Animation
Durée : 1h 15min.
Année de production : 2005

General
Complete name : C:UsersmavricDownloadsDark Floors [2009].TRUEFRENCH.DVDRIP.XVID.Up By BoubounDZ.aviUltimate Avengers.FRENCH.BDRiP.XviD-HARIJO.avi
Format : AVI
Format/Info : Audio Video Interleave
File size : 697 MiB
Duration : 1h 11mn
Overall bit rate : 1 366 Kbps

Video
ID : 0
Format : MPEG-4 Visual
Format profile : [email protected]
Format settings, BVOP : Yes
Format settings, QPel : No
Format settings, GMC : No warppoints
Format settings, Matrix : Default (H.263)
Codec ID : XVID
Codec ID/Hint : XviD
Duration : 1h 11mn
Bit rate : 1 224 Kbps
Width : 640 pixels
Height : 352 pixels
Display aspect ratio : 16:9
Frame rate : 30.000 fps
Resolution : 24 bits
Colorimetry : 4:2:0
Scan type : Progressive
Bits/(Pixel*Frame) : 0.181
Stream size : 625 MiB (90%)
Writing library : XviD 1.2.1 (UTC 2008-12-04)

Audio
ID : 1
Format : MPEG Audio
Format version : Version 1
Format profile : Layer 3
Codec ID : 55
Codec ID/Hint : MP3
Duration : 1h 11mn
Bit rate mode : Constant
Bit rate : 128 Kbps
Channel(s) : 2 channels
Sampling rate : 44.1 KHz
Resolution : 16 bits
Stream size : 65.3 MiB (9%)
Alignment : Split accross interleaves
Interleave, duration : 26 ms (0.78 video frame)


[/aligner]

related torrents

Torrent name

health leech seeds Size
 

comments (0)

Main Menu