Jazz

Chano Dominguez Hecho a mano (1996) FLAC

  • Download 5x Faster
  • Download torrent
  • Direct Download
  • Rate this torrent +  |  -
Chano Dominguez Hecho a mano (1996) FLAC

Download FREE And Anonymously


Torrent info

Name:Chano Dominguez Hecho a mano (1996) FLAC

Total Size: 441.89 MB

Magnet: Magnet Link

Seeds: 3

Leechers: 2

Stream: Watch Full Movie @ Movie4u

Last Updated: 2010-11-17 21:38:24 (Update Now)

Torrent added: 2008-07-28 09:41:38



VPN For Torrents

Torrent Files List


cdImage (flac).cue (Size: 441.89 MB) (Files: 17)

 cdImage (flac).cue

1.38 KB

 cdImage (wav).cue

1.38 KB

 cdImage.flac

335.07 MB

 EAC.log

2.64 KB

 Info.txt

2.58 KB

 Read me.txt

0.26 KB

 Scans

  Booklet 001.png

15.34 MB

  Booklet 002.png

13.09 MB

  Booklet 003.png

11.02 MB

  Booklet 004.png

10.90 MB

  Booklet 005.png

10.89 MB

  Booklet 006.png

10.81 MB

  Disc.png

9.25 MB

  Tray inside.png

12.90 MB

  Tray outside.png

12.61 MB

 Thumb.jpg

14.64 KB

 Torrent downloaded from Demonoid.com.txt

0.05 KB
 

Announce URL: http://inferno.demonoid.com:3391/announce

Torrent description

Chano Dominguez - Hecho a Mano | Sunnyside Records

Track Listing:
1. Alma de Mujer
2. Retaila
3. Pinar Hondo
4. Tu Enciendes Las Estrellas (Turn out the Stars)
5. Cardamomo
6. Bajamar
7. Cilantro y Comino
8. Solea Blues
9. Jacaranda
10. Bubango
11. Bemsha Swing
12. Solo con Verte
TT = 62:17

Personnel:
Chano Dominguez (piano, composer)
Javier Colina (bass)
Guillermo McGuill (drums)
Tomatito, Antonio Toledo, Nono Garcia, Tito Alcedo (guitar)
Tino di Geraldo (percussion, tablas, cajon, bateriadrums, tambourine, clapping)
Chonchi Heredia (vocals, clapping)
Joaquin Grilo (foot tapping, clapping)
Juan Diego, Lorenza Virseda (clapping)

The cross-pollination of Latin music and jazz has been going on for decades. Typically, a jazz group will borrow Latin grooves and instrumentation, while Latin players apply their rhythms and harmonies to the American standards songbook. It's usually a rather self-conscious blending in which the genre lines are still obvious; only a few musicians have managed to make the mix organic (Chick Corea, Michel Camilo, and Al DiMeola's The Grande Passion CD come to mind).
Now we have Chano Dominguez, a fine pianist from Cadiz, Spain, who weaves jazz with a flamenco approach. Hecho a Mano (aka Handmade) was recorded in Madrid in September, 1996, for Nuba Records, and released on October 15, 2002 by Sunnyside.
Dominguez's ten originals integrate jazz improvisation and harmonies with the fire and mystery of his native culture; it's a seamless blend, exciting and original. Dominguez also breathes fresh life into a pair of classics: “Turn Out the Stars” gets a new Spanish subtitle {”You Turn On the Stars”) as a tribute to composer Bill Evans; it also gets a new feel as a lovely flamenco waltz. Monk's quirky “Bemsha Swing” becomes a delightful mix of piano and powerful hand-clapping and shoe-tapping. Dominguez introduces the American listener to a broad range of flamenco forms which extend far beyond the Hollywood stereotype of the fierce, scowling dancer to include the tango, the exuberant buleria and sequidilla, and the bluesy solea. His compositions range from a musical description of a woman's soul (”Alma de Mujer”), which builds from tenderness to passion, to the tabla-inflected ”Cardomono,” the gypsy “Retaila” and the sexy fandango, “Pinar Hondo.” “Cilantro y Comino” is an extended journey that's full of rhythmic surprises and joyful energy.
All the musicians are first-rate, with notable solos delivered by bassist Javier Colina and guitarist Tito Alcedo. This is exciting, soulful, memorable music.
www.sunnysiderecords.com
~ Judith Schlesinger

Exact Audio Copy V0.99 prebeta 4 from 23. January 2008

EAC extraction logfile from 28. July 2008, 12:41

Chano Dominguez / Hecho a mano

Used drive : HL-DT-STDVD-ROM GDR8163B Adapter: 1 ID: 1

Read mode : Secure
Utilize accurate stream : Yes
Defeat audio cache : Yes
Make use of C2 pointers : No

Read offset correction : 102
Overread into Lead-In and Lead-Out : No
Fill up missing offset samples with silence : Yes
Delete leading and trailing silent blocks : No
Null samples used in CRC calculations : Yes
Used interface : Installed external ASPI interface

Used output format : Internal WAV Routines
Sample format : 44.100 Hz; 16 Bit; Stereo


TOC of the extracted CD

Track | Start | Length | Start sector | End sector
---------------------------------------------------------
1 | 0:00.00 | 5:33.68 | 0 | 25042
2 | 5:33.68 | 4:21.50 | 25043 | 44667
3 | 9:55.43 | 5:29.05 | 44668 | 69347
4 | 15:24.48 | 4:33.65 | 69348 | 89887
5 | 19:58.38 | 2:50.40 | 89888 | 102677
6 | 22:49.03 | 6:32.70 | 102678 | 132147
7 | 29:21.73 | 7:13.62 | 132148 | 164684
8 | 36:35.60 | 6:56.55 | 164685 | 195939
9 | 43:32.40 | 3:53.23 | 195940 | 213437
10 | 47:25.63 | 7:21.47 | 213438 | 246559
11 | 54:47.35 | 2:55.13 | 246560 | 259697
12 | 57:42.48 | 4:32.62 | 259698 | 280159


Range status and errors

Selected range

Filename D:\Jazz\Chano Dominguez - Hecho a mano (1996) [FLAC]\cdImage.wav

Peak level 100.0 %
Range quality 100.0 %
Test CRC DE7FD578
Copy CRC DE7FD578
Copy OK

No errors occurred


AccurateRip summary

Track 1 accurately ripped (confidence 2) [DF162D41]
Track 2 accurately ripped (confidence 2) [D94927EB]
Track 3 accurately ripped (confidence 2) [7663EAD2]
Track 4 accurately ripped (confidence 2) [3B97DC28]
Track 5 accurately ripped (confidence 2) [1DC781FD]
Track 6 accurately ripped (confidence 2) [632542E8]
Track 7 accurately ripped (confidence 2) [62D2A1A3]
Track 8 accurately ripped (confidence 2) [86A140D2]
Track 9 accurately ripped (confidence 2) [D13B749F]
Track 10 accurately ripped (confidence 2) [362468D7]
Track 11 accurately ripped (confidence 2) [CF688AF8]
Track 12 accurately ripped (confidence 2) [6922E104]

All tracks accurately ripped

End of status report

related torrents

Torrent name

health leech seeds Size

chano dominguez

4 0 84.37 MB 0
 


comments (0)

Main Menu

 

script data-cfasync="false" src="//d2ghscazvn398x.cloudfront.net/?cshgd=690275">