TV - Other

Scooby Doo Season 2 Part 2 Ep 5 8 Final Part [Shadow] [H33t] [DivX] [Avi]

  • Download 5x Faster
  • Download torrent
  • Direct Download
  • Rate this torrent +  |  -

Torrent info

Name:Scooby Doo Season 2 Part 2 Ep 5 8 Final Part [Shadow] [H33t] [DivX] [Avi]

Total Size: 794.10 MB

Magnet: Magnet Link

Seeds: 0

Leechers: 0

Stream: Watch Online @ Movie4u

Last Updated: 2016-02-03 08:32:35 (Update Now)

Torrent added: 2009-08-24 03:11:08



VPN For Torrents

Torrent Files List


scooby2.jpg (Size: 794.10 MB) (Files: 8)

 scooby2.jpg

26.74 KB

 tracked_by_h33t_com.txt

0.02 KB

 scooby1.jpg

75.53 KB

 Scooby Doo Season 2 Part 2 Ep 5-8 Final Part [Shadow] [H33t] [DivX] [Avi].txt

13.73 KB

 Scooby Doo S2E08.avi

198.85 MB

 Scooby Doo S2E06.avi

198.82 MB

 Scooby Doo S2E07.avi

199.10 MB

 Scooby Doo S2E05.avi

197.22 MB
 

tracker

leech seeds
 

Torrent description

----------------------------------------------------------------------------------------------------------------
Description/TagLines
----------------------------------------------------------------------------------------------------------------

The first incarnation of what has become a franchise-of-sorts. Scooby-Doo was a large, loveable but cowardly Great Dane who hung around four

California high school students (Fred, Velma, Daphne and Shaggy). The four teen-agers were in constant search of mysteries and adventures, driving

around in a bright green van known as the Mystery Machine. Many of the group's adventures involved villians who took on supernatural disguises

(ghosts and monsters); the villians' activities usually involved blackmail, theft, fraud and other forms of corruption. At the first hint of trouble,

Scooby-Doo (and usually, Shaggy as well) running for cover; they usually found themselves in even deeper trouble. It usually took the promise of a

Scooby snack to get Scooby (and Shaggy) to come out of hiding. The mysteries were always solved by the end of each show (the villian proclaiming,

"And I would have gotten away with it if it hadn't have been for you kids!" or some similar line). Written by Brian Rathjen



----------------------------------------------------------------------------------------------------------------
Cast
----------------------------------------------------------------------------------------------------------------



Don Messick ... Scoobert 'Scooby' Doo / ... (25 episodes, 1969-1970)

Casey Kasem ... Norville 'Shaggy' Rogers / ... (25 episodes, 1969-1970)
Nicole Jaffe ... Velma Dinkley (25 episodes, 1969-1970)

Frank Welker ... Fred 'Freddy' Jones (25 episodes, 1969-1970)
Stefanianna Christopherson ... Daphne Blake (25 episodes, 1969-1970)
Heather North ... Daphne Blake (7 episodes, 1970-1972)




----------------------------------------------------------------------------------------------------------------
File Info
----------------------------------------------------------------------------------------------------------------

----------------------------------------------------------------------------------------------------------------
General
----------------------------------------------------------------------------------------------------------------
Complete name : Scooby Doo S2E05.avi
Format : AVI
Format/Info : Audio Video Interleave
File size : 197 MiB
Duration : 21mn 52s
Overall bit rate : 1 261 Kbps
Writing application : Lavf51.12.1

----------------------------------------------------------------------------------------------------------------
Video
----------------------------------------------------------------------------------------------------------------
Format : MPEG-4 Visual
Format profile : [email protected]
Format settings, BVOP : No
Format settings, QPel : No
Format settings, GMC : No warppoints
Format settings, Matrix : Default
Codec ID : DX50
Codec ID/Hint : DivX 5
Duration : 21mn 52s
Bit rate : 1 120 Kbps
Width : 720 pixels
Height : 480 pixels
Display aspect ratio : 1.500
Frame rate : 23.976 fps
Standard : NTSC
Resolution : 24 bits
Colorimetry : 4:2:0
Scan type : Progressive
Bits/(Pixel*Frame) : 0.135
Stream size : 175 MiB (89%)
Writing library : Lavc51.40.4

----------------------------------------------------------------------------------------------------------------
Audio
----------------------------------------------------------------------------------------------------------------
Format : MPEG Audio
Format version : Version 1
Format profile : Layer 3
Codec ID : 55
Codec ID/Hint : MP3
Duration : 21mn 52s
Bit rate mode : Constant
Bit rate : 128 Kbps
Channel(s) : 2 channels
Sampling rate : 48.0 KHz
Resolution : 16 bits
Stream size : 20.0 MiB (10%)
Alignment : Aligned on interleaves
Interleave, duration : 24 ms (0.58 video frame)
Interleave, preload duration : 24 ms
Writing library : LAME3.97

----------------------------------------------------------------------------------------------------------------
General
----------------------------------------------------------------------------------------------------------------
Complete name : Scooby Doo S2E06.avi
Format : AVI
Format/Info : Audio Video Interleave
File size : 199 MiB
Duration : 22mn 3s
Overall bit rate : 1 260 Kbps
Writing application : Lavf51.12.1

----------------------------------------------------------------------------------------------------------------
Video
----------------------------------------------------------------------------------------------------------------
Format : MPEG-4 Visual
Format profile : [email protected]
Format settings, BVOP : No
Format settings, QPel : No
Format settings, GMC : No warppoints
Format settings, Matrix : Default
Codec ID : DX50
Codec ID/Hint : DivX 5
Duration : 22mn 3s
Bit rate : 1 120 Kbps
Width : 720 pixels
Height : 480 pixels
Display aspect ratio : 1.500
Frame rate : 23.976 fps
Standard : NTSC
Resolution : 24 bits
Colorimetry : 4:2:0
Scan type : Progressive
Bits/(Pixel*Frame) : 0.135
Stream size : 177 MiB (89%)
Writing library : Lavc51.40.4

----------------------------------------------------------------------------------------------------------------
Audio
----------------------------------------------------------------------------------------------------------------
Format : MPEG Audio
Format version : Version 1
Format profile : Layer 3
Codec ID : 55
Codec ID/Hint : MP3
Duration : 22mn 3s
Bit rate mode : Constant
Bit rate : 128 Kbps
Channel(s) : 2 channels
Sampling rate : 48.0 KHz
Resolution : 16 bits
Stream size : 20.2 MiB (10%)
Alignment : Aligned on interleaves
Interleave, duration : 24 ms (0.58 video frame)
Interleave, preload duration : 24 ms
Writing library : LAME3.97

----------------------------------------------------------------------------------------------------------------
General
----------------------------------------------------------------------------------------------------------------
Complete name : Scooby Doo S2E07.avi
Format : AVI
Format/Info : Audio Video Interleave
File size : 199 MiB
Duration : 22mn 5s
Overall bit rate : 1 260 Kbps
Writing application : Lavf51.12.1

----------------------------------------------------------------------------------------------------------------
Video
----------------------------------------------------------------------------------------------------------------
Format : MPEG-4 Visual
Format profile : [email protected]
Format settings, BVOP : No
Format settings, QPel : No
Format settings, GMC : No warppoints
Format settings, Matrix : Default
Codec ID : DX50
Codec ID/Hint : DivX 5
Duration : 22mn 5s
Bit rate : 1 120 Kbps
Width : 720 pixels
Height : 480 pixels
Display aspect ratio : 1.500
Frame rate : 23.976 fps
Standard : NTSC
Resolution : 24 bits
Colorimetry : 4:2:0
Scan type : Progressive
Bits/(Pixel*Frame) : 0.135
Stream size : 177 MiB (89%)
Writing library : Lavc51.40.4

----------------------------------------------------------------------------------------------------------------
Audio
----------------------------------------------------------------------------------------------------------------
Format : MPEG Audio
Format version : Version 1
Format profile : Layer 3
Codec ID : 55
Codec ID/Hint : MP3
Duration : 22mn 5s
Bit rate mode : Constant
Bit rate : 128 Kbps
Channel(s) : 2 channels
Sampling rate : 48.0 KHz
Resolution : 16 bits
Stream size : 20.2 MiB (10%)
Alignment : Aligned on interleaves
Interleave, duration : 24 ms (0.58 video frame)
Interleave, preload duration : 24 ms
Writing library : LAME3.97

----------------------------------------------------------------------------------------------------------------
General
----------------------------------------------------------------------------------------------------------------
Complete name : Scooby Doo S2E08.avi
Format : AVI
Format/Info : Audio Video Interleave
File size : 199 MiB
Duration : 22mn 2s
Overall bit rate : 1 262 Kbps
Writing application : Lavf51.12.1

----------------------------------------------------------------------------------------------------------------
Video
----------------------------------------------------------------------------------------------------------------
Format : MPEG-4 Visual
Format profile : [email protected]
Format settings, BVOP : No
Format settings, QPel : No
Format settings, GMC : No warppoints
Format settings, Matrix : Default
Codec ID : DX50
Codec ID/Hint : DivX 5
Duration : 22mn 2s
Bit rate : 1 121 Kbps
Width : 720 pixels
Height : 480 pixels
Display aspect ratio : 1.500
Frame rate : 23.976 fps
Standard : NTSC
Resolution : 24 bits
Colorimetry : 4:2:0
Scan type : Progressive
Bits/(Pixel*Frame) : 0.135
Stream size : 177 MiB (89%)
Writing library : Lavc51.40.4

----------------------------------------------------------------------------------------------------------------
Audio
----------------------------------------------------------------------------------------------------------------
Format : MPEG Audio
Format version : Version 1
Format profile : Layer 3
Codec ID : 55
Codec ID/Hint : MP3
Duration : 22mn 2s
Bit rate mode : Constant
Bit rate : 128 Kbps
Channel(s) : 2 channels
Sampling rate : 48.0 KHz
Resolution : 16 bits
Stream size : 20.2 MiB (10%)
Alignment : Aligned on interleaves
Interleave, duration : 24 ms (0.58 video frame)
Interleave, preload duration : 24 ms
Writing library : LAME3.97




----------------------------------------------------------------------------------------------------------------
Files Included
----------------------------------------------------------------------------------------------------------------

Scooby Doo S2E05-S2E08.avi
Scooby1.jpg
Scooby2.jpg
tracked_by_h33t_com.txt
Scooby Doo Season 2 Part 2 Ep 5-8 Final Part [Shadow] [H33t] [DivX] [Avi].txt

----------------------------------------------------------------------------------------------------------------
Personal Notes
----------------------------------------------------------------------------------------------------------------

This is the Second part of Season 2. This is the final part of my set. Season 2 was much shorter than season 1. Enjoy :)


related torrents

Torrent name

health leech seeds Size
 


comments (0)

Main Menu