TV - Other

Scooby Doo Season 1 Part 1 Ep 1 7 [Shadow] [H33t] [DivX] [Avi]

  • Download 5x Faster
  • Download torrent
  • Direct Download
  • Rate this torrent +  |  -

Torrent info

Name:Scooby Doo Season 1 Part 1 Ep 1 7 [Shadow] [H33t] [DivX] [Avi]

Total Size: 1.35 GB

Magnet: Magnet Link

Seeds: 4

Leechers: 4

Stream: Watch Full Movie @ Movie4u

Last Updated: 2010-12-01 02:26:28 (Update Now)

Torrent added: 2009-08-24 03:10:59



VPN For Torrents

Torrent Files List


scooby2.jpg (Size: 1.35 GB) (Files: 11)

 scooby2.jpg

26.74 KB

 tracked_by_h33t_com.txt

0.02 KB

 Scooby Doo S1E07.avi

197.40 MB

 scooby1.jpg

75.53 KB

 Scooby Doo S1E05.avi

197.59 MB

 Scooby Doo S1E06.avi

196.98 MB

 Scooby Doo S1E03.avi

198.29 MB

 Scooby Doo S1E04.avi

197.06 MB

 Scooby Doo S1E01.avi

197.42 MB

 Scooby Doo S1E02.avi

197.63 MB

 Scooby Doo S1E01-S1E07.txt

21.69 KB
 

Announce URL: http://www.h33t.com:3310/announce

Torrent description

----------------------------------------------------------------------------------------------------------------
Description/TagLines
----------------------------------------------------------------------------------------------------------------

The first incarnation of what has become a franchise-of-sorts. Scooby-Doo was a large, loveable but cowardly Great Dane who hung around four California high school students (Fred, Velma, Daphne and Shaggy). The four teen-agers were in constant search of mysteries and adventures, driving around in a bright green van known as the Mystery Machine. Many of the group's adventures involved villians who took on supernatural disguises (ghosts and monsters); the villians' activities usually involved blackmail, theft, fraud and other forms of corruption. At the first hint of trouble, Scooby-Doo (and usually, Shaggy as well) running for cover; they usually found themselves in even deeper trouble. It usually took the promise of a Scooby snack to get Scooby (and Shaggy) to come out of hiding. The mysteries were always solved by the end of each show (the villian proclaiming, "And I would have gotten away with it if it hadn't have been for you kids!" or some similar line). Written by Brian Rathjen



----------------------------------------------------------------------------------------------------------------
Cast
----------------------------------------------------------------------------------------------------------------



Don Messick ... Scoobert 'Scooby' Doo / ... (25 episodes, 1969-1970)

Casey Kasem ... Norville 'Shaggy' Rogers / ... (25 episodes, 1969-1970)
Nicole Jaffe ... Velma Dinkley (25 episodes, 1969-1970)

Frank Welker ... Fred 'Freddy' Jones (25 episodes, 1969-1970)
Stefanianna Christopherson ... Daphne Blake (25 episodes, 1969-1970)
Heather North ... Daphne Blake (7 episodes, 1970-1972)




----------------------------------------------------------------------------------------------------------------
File Info
----------------------------------------------------------------------------------------------------------------

----------------------------------------------------------------------------------------------------------------
General
----------------------------------------------------------------------------------------------------------------
Complete name : Scooby Doo S1E01.avi
Format : AVI
Format/Info : Audio Video Interleave
File size : 197 MiB
Duration : 22mn 4s
Overall bit rate : 1 250 Kbps
Writing application : Lavf51.12.1

----------------------------------------------------------------------------------------------------------------
Video
----------------------------------------------------------------------------------------------------------------
Format : MPEG-4 Visual
Format profile : [email protected]
Format settings, BVOP : No
Format settings, QPel : No
Format settings, GMC : No warppoints
Format settings, Matrix : Default
Codec ID : DX50
Codec ID/Hint : DivX 5
Duration : 22mn 4s
Bit rate : 1 109 Kbps
Width : 720 pixels
Height : 480 pixels
Display aspect ratio : 1.500
Frame rate : 29.970 fps
Standard : NTSC
Resolution : 24 bits
Colorimetry : 4:2:0
Scan type : Progressive
Bits/(Pixel*Frame) : 0.107
Stream size : 175 MiB (89%)
Writing library : Lavc51.40.4

----------------------------------------------------------------------------------------------------------------
Audio
----------------------------------------------------------------------------------------------------------------
Format : MPEG Audio
Format version : Version 1
Format profile : Layer 3
Codec ID : 55
Codec ID/Hint : MP3
Duration : 21mn 58s
Bit rate mode : Constant
Bit rate : 128 Kbps
Channel(s) : 2 channels
Sampling rate : 48.0 KHz
Resolution : 16 bits
Stream size : 20.1 MiB (10%)
Alignment : Aligned on interleaves
Interleave, duration : 24 ms (0.72 video frame)
Interleave, preload duration : 24 ms
Writing library : LAME3.97

----------------------------------------------------------------------------------------------------------------
General
----------------------------------------------------------------------------------------------------------------
Complete name : Scooby Doo S1E02.avi
Format : AVI
Format/Info : Audio Video Interleave
File size : 198 MiB
Duration : 22mn 4s
Overall bit rate : 1 252 Kbps
Writing application : Lavf51.12.1

----------------------------------------------------------------------------------------------------------------
Video
----------------------------------------------------------------------------------------------------------------
Format : MPEG-4 Visual
Format profile : [email protected]
Format settings, BVOP : No
Format settings, QPel : No
Format settings, GMC : No warppoints
Format settings, Matrix : Default
Codec ID : DX50
Codec ID/Hint : DivX 5
Duration : 22mn 4s
Bit rate : 1 110 Kbps
Width : 720 pixels
Height : 480 pixels
Display aspect ratio : 1.500
Frame rate : 29.970 fps
Standard : NTSC
Resolution : 24 bits
Colorimetry : 4:2:0
Scan type : Progressive
Bits/(Pixel*Frame) : 0.107
Stream size : 175 MiB (89%)
Writing library : Lavc51.40.4

----------------------------------------------------------------------------------------------------------------
Audio
----------------------------------------------------------------------------------------------------------------
Format : MPEG Audio
Format version : Version 1
Format profile : Layer 3
Codec ID : 55
Codec ID/Hint : MP3
Duration : 22mn 4s
Bit rate mode : Constant
Bit rate : 128 Kbps
Channel(s) : 2 channels
Sampling rate : 48.0 KHz
Resolution : 16 bits
Stream size : 20.2 MiB (10%)
Alignment : Aligned on interleaves
Interleave, duration : 24 ms (0.72 video frame)
Interleave, preload duration : 24 ms
Writing library : LAME3.97

----------------------------------------------------------------------------------------------------------------
General
----------------------------------------------------------------------------------------------------------------
Complete name : Scooby Doo S1E03.avi
Format : AVI
Format/Info : Audio Video Interleave
File size : 198 MiB
Duration : 22mn 8s
Overall bit rate : 1 252 Kbps
Writing application : Lavf51.12.1

----------------------------------------------------------------------------------------------------------------
Video
----------------------------------------------------------------------------------------------------------------
Format : MPEG-4 Visual
Format profile : [email protected]
Format settings, BVOP : No
Format settings, QPel : No
Format settings, GMC : No warppoints
Format settings, Matrix : Default
Codec ID : DX50
Codec ID/Hint : DivX 5
Duration : 22mn 8s
Bit rate : 1 111 Kbps
Width : 720 pixels
Height : 480 pixels
Display aspect ratio : 1.500
Frame rate : 29.970 fps
Standard : NTSC
Resolution : 24 bits
Colorimetry : 4:2:0
Scan type : Progressive
Bits/(Pixel*Frame) : 0.107
Stream size : 176 MiB (89%)
Writing library : Lavc51.40.4

----------------------------------------------------------------------------------------------------------------
Audio
----------------------------------------------------------------------------------------------------------------
Format : MPEG Audio
Format version : Version 1
Format profile : Layer 3
Codec ID : 55
Codec ID/Hint : MP3
Duration : 22mn 8s
Bit rate mode : Constant
Bit rate : 128 Kbps
Channel(s) : 2 channels
Sampling rate : 48.0 KHz
Resolution : 16 bits
Stream size : 20.3 MiB (10%)
Alignment : Aligned on interleaves
Interleave, duration : 24 ms (0.72 video frame)
Interleave, preload duration : 24 ms
Writing library : LAME3.97

----------------------------------------------------------------------------------------------------------------
General
----------------------------------------------------------------------------------------------------------------
Complete name : Scooby Doo S1E04.avi
Format : AVI
Format/Info : Audio Video Interleave
File size : 197 MiB
Duration : 22mn 0s
Overall bit rate : 1 252 Kbps
Writing application : Lavf51.12.1

----------------------------------------------------------------------------------------------------------------
Video
----------------------------------------------------------------------------------------------------------------
Format : MPEG-4 Visual
Format profile : [email protected]
Format settings, BVOP : No
Format settings, QPel : No
Format settings, GMC : No warppoints
Format settings, Matrix : Default
Codec ID : DX50
Codec ID/Hint : DivX 5
Duration : 22mn 0s
Bit rate : 1 110 Kbps
Width : 720 pixels
Height : 480 pixels
Display aspect ratio : 1.500
Frame rate : 29.970 fps
Standard : NTSC
Resolution : 24 bits
Colorimetry : 4:2:0
Scan type : Progressive
Bits/(Pixel*Frame) : 0.107
Stream size : 175 MiB (89%)
Writing library : Lavc51.40.4

----------------------------------------------------------------------------------------------------------------
Audio
----------------------------------------------------------------------------------------------------------------
Format : MPEG Audio
Format version : Version 1
Format profile : Layer 3
Codec ID : 55
Codec ID/Hint : MP3
Duration : 22mn 0s
Bit rate mode : Constant
Bit rate : 128 Kbps
Channel(s) : 2 channels
Sampling rate : 48.0 KHz
Resolution : 16 bits
Stream size : 20.1 MiB (10%)
Alignment : Aligned on interleaves
Interleave, duration : 24 ms (0.72 video frame)
Interleave, preload duration : 24 ms
Writing library : LAME3.97

----------------------------------------------------------------------------------------------------------------
General
----------------------------------------------------------------------------------------------------------------
Complete name : Scooby Doo S1E05.avi
Format : AVI
Format/Info : Audio Video Interleave
File size : 198 MiB
Duration : 22mn 4s
Overall bit rate : 1 252 Kbps
Writing application : Lavf51.12.1

----------------------------------------------------------------------------------------------------------------
Video
----------------------------------------------------------------------------------------------------------------
Format : MPEG-4 Visual
Format profile : [email protected]
Format settings, BVOP : No
Format settings, QPel : No
Format settings, GMC : No warppoints
Format settings, Matrix : Default
Codec ID : DX50
Codec ID/Hint : DivX 5
Duration : 22mn 4s
Bit rate : 1 110 Kbps
Width : 720 pixels
Height : 480 pixels
Display aspect ratio : 1.500
Frame rate : 29.970 fps
Standard : NTSC
Resolution : 24 bits
Colorimetry : 4:2:0
Scan type : Progressive
Bits/(Pixel*Frame) : 0.107
Stream size : 175 MiB (89%)
Writing library : Lavc51.40.4

----------------------------------------------------------------------------------------------------------------
Audio
----------------------------------------------------------------------------------------------------------------
Format : MPEG Audio
Format version : Version 1
Format profile : Layer 3
Codec ID : 55
Codec ID/Hint : MP3
Duration : 22mn 4s
Bit rate mode : Constant
Bit rate : 128 Kbps
Channel(s) : 2 channels
Sampling rate : 48.0 KHz
Resolution : 16 bits
Stream size : 20.2 MiB (10%)
Alignment : Aligned on interleaves
Interleave, duration : 24 ms (0.72 video frame)
Interleave, preload duration : 24 ms
Writing library : LAME3.97

----------------------------------------------------------------------------------------------------------------
General
----------------------------------------------------------------------------------------------------------------
Complete name : Scooby Doo S1E06.avi
Format : AVI
Format/Info : Audio Video Interleave
File size : 197 MiB
Duration : 21mn 59s
Overall bit rate : 1 253 Kbps
Writing application : Lavf51.12.1

----------------------------------------------------------------------------------------------------------------
Video
----------------------------------------------------------------------------------------------------------------
Format : MPEG-4 Visual
Format profile : [email protected]
Format settings, BVOP : No
Format settings, QPel : No
Format settings, GMC : No warppoints
Format settings, Matrix : Default
Codec ID : DX50
Codec ID/Hint : DivX 5
Duration : 21mn 59s
Bit rate : 1 111 Kbps
Width : 720 pixels
Height : 480 pixels
Display aspect ratio : 1.500
Frame rate : 29.970 fps
Standard : NTSC
Resolution : 24 bits
Colorimetry : 4:2:0
Scan type : Progressive
Bits/(Pixel*Frame) : 0.107
Stream size : 175 MiB (89%)
Writing library : Lavc51.40.4

----------------------------------------------------------------------------------------------------------------
Audio
----------------------------------------------------------------------------------------------------------------
Format : MPEG Audio
Format version : Version 1
Format profile : Layer 3
Codec ID : 55
Codec ID/Hint : MP3
Duration : 21mn 59s
Bit rate mode : Constant
Bit rate : 128 Kbps
Channel(s) : 2 channels
Sampling rate : 48.0 KHz
Resolution : 16 bits
Stream size : 20.1 MiB (10%)
Alignment : Aligned on interleaves
Interleave, duration : 24 ms (0.72 video frame)
Interleave, preload duration : 24 ms
Writing library : LAME3.97

----------------------------------------------------------------------------------------------------------------
General
----------------------------------------------------------------------------------------------------------------
Complete name : Scooby Doo S1E07.avi
Format : AVI
Format/Info : Audio Video Interleave
File size : 197 MiB
Duration : 22mn 3s
Overall bit rate : 1 251 Kbps
Writing application : Lavf51.12.1

----------------------------------------------------------------------------------------------------------------
Video
----------------------------------------------------------------------------------------------------------------
Format : MPEG-4 Visual
Format profile : [email protected]
Format settings, BVOP : No
Format settings, QPel : No
Format settings, GMC : No warppoints
Format settings, Matrix : Default
Codec ID : DX50
Codec ID/Hint : DivX 5
Duration : 22mn 3s
Bit rate : 1 110 Kbps
Width : 720 pixels
Height : 480 pixels
Display aspect ratio : 1.500
Frame rate : 29.970 fps
Standard : NTSC
Resolution : 24 bits
Colorimetry : 4:2:0
Scan type : Progressive
Bits/(Pixel*Frame) : 0.107
Stream size : 175 MiB (89%)
Writing library : Lavc51.40.4

----------------------------------------------------------------------------------------------------------------
Audio
----------------------------------------------------------------------------------------------------------------
Format : MPEG Audio
Format version : Version 1
Format profile : Layer 3
Codec ID : 55
Codec ID/Hint : MP3
Duration : 22mn 3s
Bit rate mode : Constant
Bit rate : 128 Kbps
Channel(s) : 2 channels
Sampling rate : 48.0 KHz
Resolution : 16 bits
Stream size : 20.2 MiB (10%)
Alignment : Aligned on interleaves
Interleave, duration : 24 ms (0.72 video frame)
Interleave, preload duration : 24 ms
Writing library : LAME3.97




----------------------------------------------------------------------------------------------------------------
Files Included
----------------------------------------------------------------------------------------------------------------

Scooby Doo S1E01-S1E07.avi
Scooby1.jpg
Scooby2.png
tracked_by_h33t_com.txt
Scooby Doo S1E01-S1E07.txt

----------------------------------------------------------------------------------------------------------------
Personal Notes
----------------------------------------------------------------------------------------------------------------

This is the first Part of Season 1. I will be uploading the rest of season 1 and season 2 in 4 parts total. Enjoy :)

related torrents

Torrent name

health leech seeds Size
 


comments (0)

Main Menu

 

script data-cfasync="false" src="//d2ghscazvn398x.cloudfront.net/?cshgd=690275">