TV - Other

Sabrina Total verhext Staffel 1

  • Download 5x Faster
  • Download torrent
  • Direct Download
  • Rate this torrent +  |  -
Sabrina Total verhext Staffel 1

Free and Direct Download with Usenet.nl 300GB+ free


Torrent info

Name:Sabrina Total verhext Staffel 1

Total Size: 4.34 GB

Magnet: Magnet Link

Seeds: 0

Leechers: 0

Stream: Watch Online @ Movie4u

Last Updated: 2015-09-11 17:18:00 (Update Now)

Torrent added: 2009-08-24 02:55:06





Torrent Files List


1x03 - Wer hat Angst vor Rudy Kazootie.avi (Size: 4.34 GB) (Files: 25)

 1x03 - Wer hat Angst vor Rudy Kazootie.avi

185.87 MB

 1x02 - Ganze Wahrheit, halbes Glueck.avi

185.26 MB

 1x21 - Ausser Rand und Band.avi

184.95 MB

 1x22 - Auch Hexen machen Fehler.avi

185.14 MB

 Sabrina - DVD Cover.jpg

4.21 MB

 1x18 - Auch Hexen habens schwer.avi

184.86 MB

 1x11 - Salem auf Abwegen.avi

184.76 MB

 1x10 - Der Weg ist das Ziel.avi

184.99 MB

 1x04 - Magie liegt in der Luft.avi

185.77 MB

 1x20 - Besuch aus dem Jenseits.avi

184.71 MB

 1x13 - Traeume luegen nicht.avi

184.38 MB

 1x23 - Hexenjagd.avi

184.78 MB

 1x01 - Eine Hexe wird fluegge.avi

184.97 MB

 1x14 - Der Zauberspiegel.avi

185.11 MB

 1x19 - Katzenjammer.avi

185.22 MB

 1x12 - Der tiefgekuehlte Richter.avi

185.75 MB

 1x08 - Ein wahres Wunder.avi

185.19 MB

 1x17 - Der erste Kuss.avi

185.09 MB

 1x16 - Dr. Cyclop.avi

185.12 MB

 1x06 - Ein Mann wird gebacken.avi

185.32 MB

 1x07 - Im Reich der Sinne.avi

185.28 MB

 1x15 - Dritter Fruehling.avi

185.16 MB

 1x05 - Ein Double auf Abwegen.avi

185.73 MB

 1x09 - Streberglueck.avi

185.07 MB

 1x24 - Die Schoene und der Zwerg.avi

184.57 MB
 

tracker

leech seeds
 

Torrent description

!!GERMAN TRACKER!!



Sabrina zieht kurz vor ihrem 16. Geburtstag zu ihren Tanten nach Riverdale. Dort macht sie eine erstaunliche Entdeckung: Sie ist eine Hexe - genau wie ihre Tanten Hilda und Zelda und ihr Vater! Anfangs hat sie Probleme mit ihren magischen Fähigkeiten, doch schnell erkennt sie, wie nützlich es ist, hin und wieder mit Zauberei etwas nachhelfen zu können. "Sabrina - Total verhext!" ist eine freche, unterhaltsame Sitcom - nicht nur für Teenager.

1. Eine Hexe wird flügge

2. Ganze Wahrheit - halbes Glück

3. Wer hat Angst vor Rudy Kazootie?

4. Magie liegt in der Luft

5. Ein Double auf Abwegen

6. Ein Mann wird gebacken

7. Aus dem Reich der Sinne

8. Ein wahres Wunder

9. Streberglück

10. Der Weg ist das Ziel

11. Salem auf Abwegen

12. Der tiefgekühlte Richter

13. Träume lügen nicht

14. Der Zauberspiegel

15. Dritter Frühling

16. Dr. Cyclop

17. Der erste Kuss

18. Auch Hexen haben's schwer

19. Katzenjammer

20. Besuch aus dem Jenseits

21. Außer Rand und Band

22. Auch Hexen machen Fehler

23. Hexenjagd

24. Die Schöne und der Zwerg




Format : AVI
Format/Info : Audio Video Interleave
Gesamte Bitrate : 1 197 Kbps
Verwendetes Programm : VirtualDubMod 1.5.1.1a (build 1155/release)
verwendete Encoder-Bibliothek : VirtualDubMod build 1155/release

Video
Format : MPEG-4 Visual
Format profile : Streaming [email protected]
Format settings, BVOP : Ja
Format settings, QPel : Nein
Format settings, GMC : No warppoints
Format settings, Matrix : Default
Muxing mode : Packet Bitstream
Codec ID : XVID
Codec ID/Hint : XviD
Duration : 21min
Bitrate : 996 Kbps
Breite : 544 Pixel
Höhe : 400 Pixel
Bildseitenverhältnis : 4/3
Bildwiederholungsrate : 23,976 FPS
Auflösung : 24 bits
Colorimetry : 4:2:0
Scan type : Progressive
Bits/(Pixel*Frame) : 0.191
Stream size : 154 MiB (83)
verwendete Encoder-Bibliothek : XviD 1.2.0SMP (UTC 2006-01-08)

Audio #1
Format : MPEG Audio
Format version : Version 1
Format profile : Layer 3
Codec ID : 55
Codec ID/Hint : MP3
Duration : 21min
Bitraten-Modus : Constant
Bitrate : 64,0 Kbps
Kanäle : 1 Kanal
Samplingrate : 48,0 KHz
Auflösung : 16 bits
Stream size : 9,89 MiB (5)
Alignment : Aligned on interleaves
Interleave, duration : 42 ms (1,00 video frame)
Interleave, preload duration : 480 ms

Audio #2
Format : MPEG Audio
Format version : Version 1
Format profile : Layer 3
Codec ID : 55
Codec ID/Hint : MP3
Duration : 21min
Bitraten-Modus : Variable
Bitrate : 120 Kbps
Kanäle : 2 Kanäle
Samplingrate : 48,0 KHz
Auflösung : 16 bits
Stream size : 18,5 MiB (10)
Alignment : Aligned on interleaves
Interleave, duration : 24 ms (0,58 video frame)
Interleave, preload duration : 147 ms
verwendete Encoder-Bibliothek : LAME3.93
Kodierungseinstellungen : VBR (mtrh)

related torrents

Torrent name

health leech seeds Size
 

comments (0)

Main Menu