Metal

Iron Maiden Live In New York 08 avi

  • Download 5x Faster
  • Download torrent
  • Direct Download
  • Rate this torrent +  |  -
Iron Maiden Live In New York 08 avi

Anonymous and Free Direct Download


Torrent info

Name:Iron Maiden Live In New York 08 avi

Total Size: 1.51 GB

Magnet: Magnet Link

Seeds: 0

Leechers: 0

Stream: Watch Online @ Movie4u

Last Updated: 2016-02-02 16:50:16 (Update Now)

Torrent added: 2008-07-28 03:35:23



VPN For Torrents

Torrent Files List


Iron Maiden - Live In New York '08.avi (Size: 1.51 GB) (Files: 1)

 Iron Maiden - Live In New York '08.avi

1.51 GB
 

tracker

leech seeds
 

Torrent description

Mesmo Arquivo Postado por Andrew na Comunidade Iron Maiden Brasil no Orkut.

Créditos arquivo .torrent: huno[Pedro Paulo]

Segue Informações sobre o Arquivo:

General
Format : AVI
Format/Info : Audio Video Interleave
File size : 1.51 GiB
Duration : 1h 59mn
Overal bit rate : 1802 Kbps
Writing application : VirtualDubMod 1.5.10.2 (build 2540/release)
Writing library : VirtualDubMod build 2540/release

Video
Format : MPEG-4 Visual
Format profile : Streaming [email protected]
Format settings, BVOP : Yes
Format settings, QPel : No
Format settings, GMC : No warpoints
Format settings, Matrix : Default
Muxing mode : Packet Bitstream
Codec ID : XVID
Codec ID/Hint : XviD
Duration : 1h 59mn
Bit rate : 1597 Kbps
Width : 720 pixels
Height : 480 pixels
Display aspect ratio : 1.500
Frame rate : 29.968 fps
Standard : NTSC
Resolution : 8 bits
Colorimetry : 4:2:0
Scan type : Progressive
Bits/(Pixel*Frame) : 0.154
Stream size : 1.34 GiB
Writing library : XviD 1.1.2 (UTC 2006-11-01)

Audio
Format : MPEG Audio
Format version : Version 1
Format profile : Layer 3
Codec ID : 55
Codec ID/Hint : MP3
Duration : 1h 59mn
Bit rate mode : Constant
Bit rate : 192 Kbps
Channel(s) : 2 channels
Sampling rate : 44.1 KHz
Resolution : 16 bits
Stream size : 165 MiB
Writing library : LAME3.97

related torrents

Torrent name

health leech seeds Size
 


comments (0)

Main Menu