TV - Other

Roommates S01E04 HDTV XviD NRG

  • Download 5x Faster
  • Download torrent
  • Direct Download
  • Rate this torrent +  |  -
Roommates S01E04 HDTV XviD NRG

Anonymous and Free Direct Download 300GB+


Torrent info

Name:Roommates S01E04 HDTV XviD NRG

Total Size: 175.05 MB

Magnet: Magnet Link

Seeds: 0

Leechers: 0

Stream: Watch Online @ Movie4u

Last Updated: 2016-10-22 09:51:05 (Update Now)

Torrent added: 2009-08-24 02:47:02



VPN For Torrents

Torrent Files List


roommates.s01e04.hdtv.xvid-nrg.nfo (Size: 175.05 MB) (Files: 2)

 roommates.s01e04.hdtv.xvid-nrg.nfo

1.84 KB

 roommates.s01e04.hdtv.xvid-nrg.avi

175.05 MB
 

Announce URL:

Torrent description

Roommates.S01E04.HDTV.XviD-NRG
date: Tue Apr 16 2009


Since noone on scene release a xvid version, i encoded one myself after:
Roommates.S01E04.720p.HDTV.x264-CTU
H:\Roommates.S01E04.HDTV.XviD-NRG\roommates.s01e04.hdtv.xvid-nrg.avi
General
Complete name : H:\Roommates.S01E04.HDTV.XviD-NRG\roommates.s01e04.hdtv.xvid-nrg.avi
Format : AVI
Format/Info : Audio Video Interleave
File size : 175 MiB
Duration : 20mn 13s
Overall bit rate : 1 210 Kbps
Writing application : VirtualDubMod 1.5.10.2 (build 2540/release)
Writing library : VirtualDubMod build 2540/release
Video
Format : MPEG-4 Visual
Format profile : Streaming [email protected]
Format settings, BVOP : Yes
Format settings, QPel : No
Format settings, GMC : No warppoints
Format settings, Matrix : Default
Muxing mode : Packed bitstream
Codec ID : XVID
Codec ID/Hint : XviD
Duration : 20mn 13s
Bit rate : 1 076 Kbps
Width : 624 pixels
Height : 352 pixels
Display aspect ratio : 16/9
Frame rate : 23.976 fps
Resolution : 24 bits
Colorimetry : 4:2:0
Scan type : Progressive
Bits/(Pixel*Frame) : 0.204
Stream size : 156 MiB (89%)
Writing library : XviD 50
Audio
Format : MPEG Audio
Format version : Version 1
Format profile : Layer 3
Codec ID : 55
Codec ID/Hint : MP3
Duration : 20mn 13s
Bit rate mode : Variable
Bit rate : 121 Kbps
Minimum bit rate : 128 Kbps
Channel(s) : 2 channels
Sampling rate : 48.0 KHz
Resolution : 16 bits
Stream size : 17.5 MiB (10%)
Alignment : Aligned on interleaves
Interleave, duration : 24 ms (0.58 video frame)
Interleave, preload duration : 548 ms
Writing library : LAME3.98b
Encoding settings : ABR

Enjoy it!

related torrents

Torrent name

health leech seeds Size
 


comments (0)

Main Menu