TV - Other

Ricky Hatton v Manny Pacquiao 2/5/09 Sky Box Office English ali cdaman HQ XVID

  • Download 5x Faster
  • Download torrent
  • Direct Download
  • Rate this torrent +  |  -

Torrent info

Name:Ricky Hatton v Manny Pacquiao 2/5/09 Sky Box Office English ali cdaman HQ XVID

Total Size: 348.44 MB

Magnet: Magnet Link

Seeds: 0

Leechers: 0

Stream: Watch Online @ Movie4u

Last Updated: 2013-05-12 06:11:56 (Update Now)

Torrent added: 2009-08-24 02:36:32




Torrent Files List


Hatton v Pacquiao ali_cdaman.avi (Size: 348.44 MB) (Files: 1)

 Hatton v Pacquiao ali_cdaman.avi

348.44 MB
 

Announce URL:

Torrent description

This is the coverage from Sky Box Office from the fighters entrances to the end of the commentary which includes interviews. So total time is approx 30mins.

Here are the screens of the video...

Ricky Hatton v Manny Pacquiao 2/5/09   Sky Box Office   English ali cdaman HQ XVID preview 0


Information...

Video
Format : MPEG-4 Visual
Format profile : Streaming [email protected]
Format settings, BVOP : Yes
Format settings, QPel : No
Format settings, GMC : No warppoints
Format settings, Matrix : Default
Codec ID : XVID
Codec ID/Hint : XviD
Duration : 30mn 30s
Bit rate : 1 197 Kbps
Width : 624 pixels
Height : 352 pixels
Display aspect ratio : 16/9
Resolution : 24 bits
Colorimetry : 4:2:0
Scan type : Progressive
Bits/(Pixel*Frame) : 0.109
Stream size : 261 MiB (75%)
Writing library : XviD 1.2.0.dev47 (UTC 2006-11-01)

Audio
Format : AC-3
Format/Info : Audio Coding 3
Codec ID : 2000
Duration : 30mn 30s
Bit rate mode : Constant
Bit rate : 384 Kbps
Channel(s) : 2 channels
Channel positions : L R
Sampling rate : 48.0 KHz
Resolution : 16 bits
Stream size : 83.8 MiB (24%)
Alignment : Aligned on interleaves
Interleave, duration : 32 ms (1.60 video frames)

related torrents

Torrent name

health leech seeds Size
 

comments (0)

Main Menu