Jazz

Quincy Jones From Q With Love [EAC FLAC] [RePoPo]

  • Download 5x Faster
  • Download torrent
  • Direct Download
  • Rate this torrent +  |  -
Quincy Jones From Q With Love [EAC FLAC] [RePoPo]

Anonymous and Free Direct Download 300GB+


Torrent info

Name:Quincy Jones From Q With Love [EAC FLAC] [RePoPo]

Total Size: 752.31 MB

Magnet: Magnet Link

Seeds: 10

Leechers: 3

Stream: Watch Online @ Movie4u

Last Updated: 2012-06-02 16:37:00 (Update Now)

Torrent added: 2009-08-24 02:34:49



VPN For Torrents

Torrent Files List


Torrent downloaded from Demonoid.com.txt (Size: 627.80 MB) (Files: 36)

 Torrent downloaded from Demonoid.com.txt

0.05 KB

 Quincy Jones - From Q With Love [EAC-FLAC] [RePoPo].txt

6.75 KB

 COVERS

  Front.jpg

1.56 MB

  Back.jpg

3.21 MB

 CD2

  Various - From Q, With Love CD 2.m3u

1.48 KB

  Various - From Q, With Love CD 2.log

5.56 KB

  From Q, With Love CD 2.txt

0.92 KB

  CD2.cuetools.flac.cue

1.45 KB

  CD2.cuetools.flac.accurip

1.45 KB

  13.- Toots Thielemans, Barry White, Mervyn Warren - At The End OfThe Day (Grace).flac

45.02 MB

  12.- Barry White, Kirk Whalum - Sax In The Garden.flac

43.06 MB

  11.- Quincy Jones - Prelude To The Garden.flac

5.03 MB

  10.- R. Kelly, Ron Isley, Aaron Hall, Charlie Wilson With Naomi Campbell - Heaven's Girl.flac

32.37 MB

  08.- Patti Austin - If This Time Is The Last Time.flac

28.91 MB

  07.- James Ingram - Just Once.flac

27.72 MB

  06.- Tevin Campbell - Everything.flac

25.13 MB

  05.- Luther Vandross, Patti Austin - I'm Gonna Miss You In The Morning.flac

23.64 MB

  04.- Benard Ighner - Everything Must Change.flac

34.91 MB

  02.- Catero - Something I Cannot Have.flac

26.08 MB

  01.- James Ingram, Patti Austin - How Do You Keep The Music Playing.flac

26.19 MB

 CD1

  Various - From Q, With Love [CD1.2].m3u

1.60 KB

  Various - From Q, With Love [CD1.2].log

5.66 KB

  From Q, With Love [CD1.2].txt

0.97 KB

  EAC.cuetools.flac.cue

1.51 KB

  EAC.cuetools.flac.accurip

1.45 KB

  13.- Frank Sinatra with Count Basie and His Orchestra - The Shadow Of Your Smile (Love Theme from The Sandpiper).flac

16.03 MB

  11.- Brandy, Heavy D - Rock With You.flac

29.16 MB

  10.- James Ingram - One Hundred Ways.flac

25.71 MB

  09.- George Benson - Love Dance.flac

18.97 MB

  07.- James Moody, Brian McKnight, Take 6, Rachelle Ferrell - Moody's Mood For Love.flac

26.00 MB

  06.- Toots Thielamans - Velas.flac

24.29 MB

  05.- Tamia - You Put A Move On My Heart.flac

39.15 MB

  04.- Patti Austin, James Ingram - Baby, Come To Me.flac

22.73 MB

  03.- Siedah Garrett, El DeBarge - I'm Yours.flac

28.04 MB

  02.- Barry White, James Ingram, Al B. Sure!, El DeBarge, Siedah Garrett - The Secret Garden (Sweet Seduction Suite).flac

43.39 MB

  01.- Sarah Vaughan, Take 6 - Setembro (Brazilian Wedding Song).flac

31.46 MB
 

Announce URL: http://inferno.demonoid.com:3415/announce

Torrent description

*******************************************************************************
Quincy Jones - From Q With Love
*******************************************************************************


TRACKLIST

CD: Various - From Q, With Love [CD1.2]
YEAR: 1999

01. Sarah Vaughan, Take 6 / Setembro (Brazilian Wedding Song) [0:05:03.10]
02. Barry White, James Ingram, Al B. Sure!, El DeBarge, Siedah Garrett / The
Secret Garden (Sweet Seduction Suite) [0:06:39.00]
03. Siedah Garrett, El DeBarge / I'm Yours [0:04:12.52]
04. Patti Austin, James Ingram / Baby, Come To Me [0:03:36.53]
05. Tamia / You Put A Move On My Heart [0:06:13.65]
06. Toots Thielamans / Velas [0:04:04.47]
07. James Moody, Brian McKnight, Take 6, Rachelle Ferrell / Moody's Mood For
Love [0:04:18.60]
08. Michael Jackson / Liberian Girl [0:03:48.35]
09. George Benson / Love Dance [0:03:18.45]
10. James Ingram / One Hundred Ways [0:04:18.55]
11. Brandy, Heavy D / Rock With You [0:04:08.70]
12. Michael Jackson / The Lady In My Life [0:04:56.68]
13. Frank Sinatra with Count Basie and His Orchestra / The Shadow Of Your Smile
(Love Theme from The Sandpiper) [0:02:53.40]



CD: Various - From Q, With Love CD 2
YEAR: 1999 ID3G: 8

01. James Ingram, Patti Austin / How Do You Keep The Music Playing
[0:04:16.12]
02. Catero / Something I Cannot Have [0:03:46.68]
03. Michael Jackson / Human Nature [0:04:04.70]
04. Benard Ighner / Everything Must Change [0:05:59.40]
05. Luther Vandross, Patti Austin / I'm Gonna Miss You In The Morning
[0:03:31.70]
06. Tevin Campbell / Everything [0:04:05.20]
07. James Ingram / Just Once [0:04:32.30]
08. Patti Austin / If This Time Is The Last Time [0:04:42.30]
09. Aretha Franklin / Somewhere [0:06:15.32]
10. R. Kelly, Ron Isley, Aaron Hall, Charlie Wilson With Naomi Campbell /
Heaven's Girl [0:04:54.00]
11. Quincy Jones / Prelude To The Garden [0:00:53.73]
12. Barry White, Kirk Whalum / Sax In The Garden [0:06:38.50]
13. Toots Thielemans, Barry White, Mervyn Warren / At The End OfThe Day (Grace)
[0:08:02.30]



-------------------------------------------------------------------------------
THE ALLMUSIC REVIEW
-------------------------------------------------------------------------------



Review by Michael Gallucci

Grouped together, as they are on the double-disc From Q with Love,
producer/arranger/conductor Quincy Jones' love songs sound an awful lot alike.
The high-gloss production, the silky smooth harmonies, the lead singers -- who
all happen to bear a strong vocal resemblance to Jones' most famous client,
Michael Jackson -- and even the tunes themselves have a one-note, suite-like
sweep to them that can be mind-numbingly tedious after a couple hours. It helps
that From Q with Love is loaded with hits from Jones' past 30-plus years (Patti
Austin and James Ingram's "Baby, Come to Me" and "How Do You Keep the Music
Playing?," Ingram's "One Hundred Ways" and "Just Once," Jackson's "Human
Nature," and a handful of tracks from Jones' 1989 golden showpiece Back on the
Block), but even they can't totally overcome the thick sap that drips through
most of these cuts. Most grating of all is the overuse of a cappella sextet Take
6, whose soulless in-studio "perfection" easily qualifies them as one of the
most annoying groups on the planet.

-------------------------------------------------------------------------------
CUETOOLS' ACCURATERIP STATUS REPORT
-------------------------------------------------------------------------------

[Verification date: 20/06/2009 10:27:20]
[Disc ID: 001d6fa9-012137f9-c10d7e0d]
Track [ CRC ] Status
01 [278eb94c] (09/09) Accurately ripped as in pressing(s) #1
02 [9500dc85] (09/09) Accurately ripped as in pressing(s) #1
03 [d5ffb7ce] (08/08) Accurately ripped as in pressing(s) #1
04 [c7fd7cf3] (09/09) Accurately ripped as in pressing(s) #1
05 [80f0a290] (08/08) Accurately ripped as in pressing(s) #1
06 [050ceeb5] (08/08) Accurately ripped as in pressing(s) #1
07 [843a4e8b] (08/08) Accurately ripped as in pressing(s) #1
08 [f4189fc0] (08/08) Accurately ripped as in pressing(s) #1
09 [56f299bd] (08/08) Accurately ripped as in pressing(s) #1
10 [14843236] (08/08) Accurately ripped as in pressing(s) #1
11 [59fed03b] (09/09) Accurately ripped as in pressing(s) #1
12 [09cf31ad] (09/09) Accurately ripped as in pressing(s) #1
13 [fa32e0a8] (09/09) Accurately ripped as in pressing(s) #1





[Verification date: 20/06/2009 21:32:53]
[Disc ID: 001bd182-0118945e-a70e780d]
Track [ CRC ] Status
01 [c9482feb] (08/08) Accurately ripped as in pressing(s) #1
02 [e8d5c8d1] (08/08) Accurately ripped as in pressing(s) #1
03 [1c7d58fb] (08/08) Accurately ripped as in pressing(s) #1
04 [c5ab321e] (08/08) Accurately ripped as in pressing(s) #1
05 [ee32d36c] (08/08) Accurately ripped as in pressing(s) #1
06 [c5458765] (08/08) Accurately ripped as in pressing(s) #1
07 [35c886bc] (08/08) Accurately ripped as in pressing(s) #1
08 [bfa18537] (08/08) Accurately ripped as in pressing(s) #1
09 [e6123446] (08/08) Accurately ripped as in pressing(s) #1
10 [10642d75] (07/07) Accurately ripped as in pressing(s) #1
11 [6841f02c] (08/08) Accurately ripped as in pressing(s) #1
12 [92c1a802] (08/08) Accurately ripped as in pressing(s) #1
13 [0388087d] (07/07) Accurately ripped as in pressing(s) #1


-------------------------------------------------------------------------------
IMPORTANT: PLEASE READ (A REQUEST)
-------------------------------------------------------------------------------

It's usual to post comments only to complain about a torrent which doesn't work
in your configuration. It's normal, after a few hours/days downloading and
expecting a release, to feel deceived if it doesn't work properly, and
expressing this is legitimate.

I've often found one comment (negative) on a movie/CD downloaded by 2000+
people, and since that single negative feedback, people simply stop downloading
and therefore, sharing. But a few times it was due not to the torrent itself,
but to some issues on the downloader side (not updated codecs, misused
tools...), and that's unfair for the person who took the time to share it for
free.

IF YOU FIND THIS RELEASE DESERVES TO BE RECOMMENDED TO OTHERS, HELP BY DROPPING
A LINE AFTER YOU'VE CHECKED IT. This way, You'll help in keeping the torrent
alive, almost as much as keeping it in your HDD until a 1:1 ratio is
reached.

Thanks

-------------------------------------------------------------------------------
-------------------------------------------------------------------------------

related torrents

Torrent name

health leech seeds Size
 


comments (0)

Main Menu