Jazz

Pat Metheny Group / Speaking Of Now (FLAC)

  • Download 5x Faster
  • Download torrent
  • Direct Download
  • Rate this torrent +  |  -
Pat Metheny Group / Speaking Of Now (FLAC)

Anonymous and Free Direct Download 300GB+


Torrent info

Name:Pat Metheny Group / Speaking Of Now (FLAC)

Total Size: 437.43 MB

Magnet: Magnet Link

Seeds: 0

Leechers: 0

Stream: Watch Online @ Movie4u

Last Updated: 2015-09-02 04:06:47 (Update Now)

Torrent added: 2009-08-24 02:30:33



VPN For Torrents

Torrent Files List


Pat Metheny Group - Speaking Of Now.cue (Size: 437.43 MB) (Files: 9)

 Pat Metheny Group - Speaking Of Now.cue

1.26 KB

 Eac.log

2.60 KB

 Cover

  [AllCDCovers]_pat_metheny_group_speaking_of_now_2002_retail_cd-inlay.jpg

73.97 KB

  [AllCDCovers]_pat_metheny_group_speaking_of_now_2002_retail_cd-front.jpg

36.68 KB

  [AllCDCovers]_pat_metheny_group_speaking_of_now_2002_retail_cd-back.jpg

61.06 KB

  patmet7.jpg

25.16 KB

 Colombo.txt

0.04 KB

 audiochecker.log

0.57 KB

 Pat Metheny Group - Speaking Of Now.flac

437.24 MB
 

tracker

leech seeds
 

Torrent description

Exact Audio Copy V0.99 prebeta 3 from 28. July 2007

EAC extraction logfile from 5. December 2007, 21:02

Pat Metheny Group / Speaking Of Now

Used drive : MATSHITADVD-RAM UJ-840S Adapter: 1 ID: 0

Read mode : Secure
Utilize accurate stream : Yes
Defeat audio cache : Yes
Make use of C2 pointers : No

Read offset correction : 102
Overread into Lead-In and Lead-Out : No
Fill up missing offset samples with silence : Yes
Delete leading and trailing silent blocks : No
Null samples used in CRC calculations : Yes
Used interface : Installed external ASPI interface

Used output format : User Defined Encoder
Selected bitrate : 768 kBit/s
Quality : High
Add ID3 tag : No
Command line compressor : C:\Programmi\Exact Audio Copy\FLAC\FLAC.EXE
Additional command line options : -6 -V -T "ARTIST=%a" -T "TITLE=%t" -T "ALBUM=%g" -T "DATE=%y" -T "TRACKNUMBER=%n" -T "GENRE=%m" -T "COMMENT=%e" %s -o %d


TOC of the extracted CD

Track | Start | Length | Start sector | End sector
---------------------------------------------------------
1 | 0:00.00 | 7:42.70 | 0 | 34719
2 | 7:42.70 | 10:18.22 | 34720 | 81091
3 | 18:01.17 | 7:13.18 | 81092 | 113584
4 | 25:14.35 | 9:26.57 | 113585 | 156091
5 | 34:41.17 | 8:57.38 | 156092 | 196404
6 | 43:38.55 | 5:41.42 | 196405 | 222021
7 | 49:20.22 | 9:54.15 | 222022 | 266586
8 | 59:14.37 | 4:45.60 | 266587 | 288021
9 | 64:00.22 | 8:03.43 | 288022 | 324289


Range status and errors

Selected range

Filename C:\Converted Music\Pat Metheny Group - Speaking Of Now.wav

Peak level 99.8 %
Range quality 100.0 %
Test CRC 39DC0579
Copy CRC 39DC0579
Copy OK

No errors occurred


AccurateRip summary

Track 1 accurately ripped (confidence 4) [C2E56214]
Track 2 accurately ripped (confidence 4) [0307F6CC]
Track 3 accurately ripped (confidence 4) [4703DDB1]
Track 4 accurately ripped (confidence 4) [D04B2BBB]
Track 5 accurately ripped (confidence 4) [952919BB]
Track 6 accurately ripped (confidence 4) [BBC246DC]
Track 7 accurately ripped (confidence 4) [2E0BDAC4]
Track 8 accurately ripped (confidence 4) [557C1CFB]
Track 9 accurately ripped (confidence 4) [817FB136]

All tracks accurately ripped

related torrents

Torrent name

health leech seeds Size
 


comments (0)

Main Menu