TV - Other

Raju Shrivastava's Non Stop 4rs Jokes Hindi MUST HAVE [HBK]

  • Download 5x Faster
  • Download torrent
  • Direct Download
  • Rate this torrent +  |  -
Raju Shrivastava's Non Stop 4rs Jokes Hindi MUST HAVE [HBK]

Anonymous and Free Direct Download 300GB+


Torrent info

Name:Raju Shrivastava's Non Stop 4rs Jokes Hindi MUST HAVE [HBK]

Total Size: 697.37 MB

Magnet: Magnet Link

Seeds: 0

Leechers: 0

Stream: Watch Online @ Movie4u

Last Updated: 2015-10-16 16:46:02 (Update Now)

Torrent added: 2009-08-24 02:22:34



VPN For Torrents

Torrent Files List


tracked_by_h33t_com.txt (Size: 697.37 MB) (Files: 4)

 tracked_by_h33t_com.txt

0.02 KB

 Raju Srivastav's Jokes 4hrs Nonstop[HBK].avi

697.26 MB

 HBK.jpg

117.42 KB

 Raju Shrivastava Jokes.nfo

2.89 KB
 

tracker

leech seeds
 

Torrent description



::The HBK Him Proudly Present::

=================================================================
HBK,HBK HBK,HBK HBK,HBKHBK,HBK HBK,HBK HBK =
HBK,HBK HBK,HBK HBK,HBKH HBK HBK,HBK HBK =
HBK,HBK HBK,HBK HBK,HBKH ,HBK HBK,HBK HBK =
HBK,HBKHBK,HBKHBK,HBK HBK,HBKHBK,HBK HBK,HBK HBK =
HBK,HBKHBK,HBKHBK,HBK HBK,HBK HBK,HBKHBK =
HBK,HBKHBK,HBKHBK,HBK HBK,HBKHBK,HBK HBK,HBK HBK =
HBK,HBKHBK,HBKHBK,HBK HBK,HBKH HBK HBK,HBK HBK =
HBK,HBK HBK,HBK HBK,HBKH HBK HBK,HBK HBK =
HBK,HBK HBK,HBK HBK,HBKHBK,HBK HBK,HBK HBK =
=================================================================
The Best of Raju Shrivastava Jokes

Please read befor downloading
I cant keep open my connection everytime. You must keep patience while downloading my big torrents. I will keep try to open my connection.
================================================================================================================


General

Format : AVI
Format/Info : Audio Video Interleave
File size : 697 MiB
Duration : 4h 2mn
Overall bit rate : 402 Kbps
Writing application : VirtualDubMod 1.5.4.1 (build 2178/release)
Writing library : VirtualDubMod build 2178/release

Video
Format : MPEG-4 Visual
Format profile : Streaming [email protected]
Format settings, BVOP : Yes
Format settings, QPel : No
Format settings, GMC : No warppoints
Format settings, Matrix : Custom
Codec ID : XVID
Codec ID/Hint : XviD
Duration : 4h 2mn
Bit rate : 284 Kbps
Width : 256 pixels
Height : 192 pixels
Display aspect ratio : 4/3
Frame rate : 29.970 fps
Resolution : 24 bits
Colorimetry : 4:2:0
Scan type : Progressive
Bits/(Pixel*Frame) : 0.193
Stream size : 492 MiB (71%)
Writing library : XviD 1.2.0SMP (UTC 2006-01-08)

Audio
Format : MPEG Audio
Format version : Version 1
Format profile : Layer 3
Codec ID : 55
Codec ID/Hint : MP3
Duration : 4h 2mn
Bit rate mode : Variable
Bit rate : 104 Kbps
Minimum bit rate : 128 Kbps
Channel(s) : 2 channels
Sampling rate : 48.0 KHz
Resolution : 16 bits
Stream size : 181 MiB (26%)
Alignment : Aligned on interleaves
Interleave, duration : 24 ms (0.72 video frame)
Interleave, preload duration : 519 ms
Writing library : LAME3.97b
Encoding settings : ABR

related torrents

Torrent name

health leech seeds Size
 


comments (0)

Main Menu