Jazz

Miles Davis Love Songs[FLAC]

  • Download 5x Faster
  • Download torrent
  • Direct Download
  • Rate this torrent +  |  -
Miles Davis Love Songs[FLAC]

Anonymous and Direct Download 300GB+ free


Torrent info

Name:Miles Davis Love Songs[FLAC]

Total Size: 400.59 MB

Magnet: Magnet Link

Seeds: 0

Leechers: 0

Stream: Watch Online @ Movie4u

Last Updated: 2010-11-23 04:06:48 (Update Now)

Torrent added: 2009-08-24 02:21:11




Torrent Files List


Miles Davis - Love Songs.log (Size: 400.59 MB) (Files: 6)

 Miles Davis - Love Songs.log

2.86 KB

 Miles Davis - Love Songs.flac

398.61 MB

 Miles Davis - Love Songs.cue

1.41 KB

 cover rear.jpg

711.37 KB

 cover inside .jpg

892.60 KB

 cover front.jpg

423.69 KB
 

Announce URL: http://colombo-bt.org:2710/announce

Torrent description

Performers: Miles Davis
Album:Love Songs
Year: 1999
Genre: jazz
Format: Flac
Quality: 1024 Kbit/sec
Size: 400 MB
Covers:Incluse
Font: CD Originale

***********************************************************

1. I Fall In Love Too Easily
2. I Thoght About You
3. Summer Night
4. My Ship
5. Someday My Prince Will Come
6. Stella by Starlight
7. My Funny Valentine
8. I Love You , Porgy (From Porgy & Bess)
9. Old Fols
10. Time After Time
11. Humane Nature

*****************************************************************
Exact Audio Copy V0.99 prebeta 3 from 28. July 2007

EAC extraction logfile from 19. March 2008, 9:00

Miles Davis / Love Songs

Used drive : HL-DT-STDVDRRW GSA-H30L Adapter: 1 ID: 1

Read mode : Secure
Utilize accurate stream : Yes
Defeat audio cache : Yes
Make use of C2 pointers : No

Read offset correction : 102
Overread into Lead-In and Lead-Out : No
Fill up missing offset samples with silence : Yes
Delete leading and trailing silent blocks : No
Null samples used in CRC calculations : Yes
Used interface : Installed external ASPI interface

Used output format : User Defined Encoder
Selected bitrate : 1024 kBit/s
Quality : High
Add ID3 tag : No
Command line compressor : C:\Program Files\Exact Audio Copy\FLAC\FLAC.EXE
Additional command line options : -8 -V -T "ARTIST=%a" -T "TITLE=%t" -T "ALBUM=%g" -T "DATE=%y" -T "TRACKNUMBER=%n" -T "GENRE=%m" -T "COMMENT=%e" %s -o %d


TOC of the extracted CD

Track | Start | Length | Start sector | End sector
---------------------------------------------------------
1 | 0:00.00 | 6:48.57 | 0 | 30656
2 | 6:48.57 | 4:56.28 | 30657 | 52884
3 | 11:45.10 | 6:01.32 | 52885 | 79991
4 | 17:46.42 | 4:34.13 | 79992 | 100554
5 | 22:20.55 | 9:09.37 | 100555 | 141766
6 | 31:30.17 | 4:53.05 | 141767 | 163746
7 | 36:23.22 | 14:58.50 | 163747 | 231146
8 | 51:21.72 | 3:40.23 | 231147 | 247669
9 | 55:02.20 | 5:19.45 | 247670 | 271639
10 | 60:21.65 | 5:35.35 | 271640 | 296799
11 | 65:57.25 | 4:30.52 | 296800 | 317101


Range status and errors

Selected range

Filename L:\Release Colombo\EAC\Miles Davis - Love Songs\Miles Davis - Love Songs.wav

Peak level 100.0 %
Range quality 100.0 %
Test CRC D5CC124A
Copy CRC D5CC124A
Copy OK

No errors occurred


AccurateRip summary

Track 1 accurately ripped (confidence 12) [1C9DE508]
Track 2 accurately ripped (confidence 12) [B204663A]
Track 3 accurately ripped (confidence 12) [D904B764]
Track 4 accurately ripped (confidence 12) [FA3019C6]
Track 5 accurately ripped (confidence 12) [B2A302B2]
Track 6 accurately ripped (confidence 12) [EC1C7B59]
Track 7 accurately ripped (confidence 12) [BB33E907]
Track 8 accurately ripped (confidence 13) [50DEACD2]
Track 9 accurately ripped (confidence 12) [1FF1F689]
Track 10 accurately ripped (confidence 12) [C4F56EE0]
Track 11 accurately ripped (confidence 11) [D99B66B2]

All tracks accurately ripped

End of status report


End of status report

************************************************************

SEED 24/7 - 40-500 kb/s

************************************************************

JazzPlanet Band
Speed Peers Group

*************************************************************

Jobam releaser

Enjoy !!!!!!!!!!!!

related torrents

Torrent name

health leech seeds Size
 


comments (0)

Main Menu