Horror

Link (1986)DVDRipKooKoo

  • Download 5x Faster
  • Download torrent
  • Direct Download
  • Rate this torrent +  |  -
Link (1986)DVDRipKooKoo

Anonymous and Direct Download 300GB+ free


Torrent info

Name:Link (1986)DVDRipKooKoo

Total Size: 700.09 MB

Magnet: Magnet Link

Seeds: 5

Leechers: 2

Stream: Watch Online @ Movie4u

Last Updated: 2016-02-19 01:19:20 (Update Now)

Torrent added: 2008-06-30 06:33:37




Torrent Files List


KooKoo.nfo (Size: 700.09 MB) (Files: 4)

 KooKoo.nfo

6.33 KB

 Link (1986)[DVDRip][KooKoo].avi

700.08 MB

 Torrent downloaded from Demonoid.com.txt

0.05 KB

 tracked_by_h33t_com.txt

0.02 KB
 

tracker

leech seeds
 

Torrent description

REQUESTED BY dodo227






??????? ???????????????????????????? ?????????????????????
??????????????????????????????????????????????????????????
?????????????? ???????????????????????????? ??????????????
????????????? ??????????????????????????? ??????????????
???????????? ?????????????????????????? ??????????????
??????????? ????????????????????????? ??????????????
??????????? ????????????????????????? ??????????????
???????????? ?????????????????????????? ??????????????
????????????? ??????????????????????????? ??????????????
?????????????? ???????????????????? ??????? ??????????????
??????????????????????????????????? ?????????????????????
??????? ??????? ????????????? ?????? ???????



*******************************************************************************
Link (1986)
*******************************************************************************

Young graduate student Jane Chase becomes the new assistant to an eccentric
Zoology professor at he remote home he shares with two brilliant chimpanzees
and an elderly orangutan butler named Link. But when one of the chimps is found
dead and the professor mysteriously disappears, Link becomes dangerously aggressive
towards Jane. Now, the time for 'monkey business' is over and the true terror is
about to begin. Elizabeth Shue (Hollow Man, Leaving Las Vegas) and Terence Stamp
(Superman II, The Limey) co-star in this suspense thriller directed by Richard Franklin
(Cloak And Dagger, FX 2) that also features a chilling score by Oscar winning composer
Jerry Goldsmith (The Omen, Planet Of The Apes).

http://www.imdb.com/title/tt0091415/

*******************************************************************************
File Information
*******************************************************************************

General
Complete name: Link (1986)[DVDRip][KooKoo].avi
Format: AVI
Format/Info: Audio Video Interleave
File size: 700 MiB
Duration: 1h 44mn
Overal bit rate: 932 Kbps
Movie name: Link (1986)[DVDRip][KooKoo]
Genre: Horror
Law rating: R
Copyright: Ripped By KooKoo
Comment: Subtitles not included
IMIU: http://www.imdb.com/title/tt0091415/
Product: DVD_VOLUME
IAS1: English

Video
Format MPEG-4 Visual
Format profile: Streaming [email protected]
Format settings, BVOP: Yes
Format settings, QPel: No
Format settings, GMC: No warppoints
Format settings, Matrix: Custom
Codec ID: XVID
Codec ID/Hint: XviD
Duration: 1h 44mn
Bit rate: 802 Kbps
Width: 576 pixels
Height: 352 pixels
Display aspect ratio: 1.636
Frame rate: 23.976 fps
Resolution: 8 bits
Colorimetry: 4:2:0
Scan type: Progressive
Bits/(Pixel*Frame): 0.165
Stream size: 602 MiB
Writing library: XviD 1.2.0.dev47 (UTC 2006-11-01)

Audio
Format: MPEG Audio
Format version: Version 1
Format profile: Layer 3
Codec ID: 55
Codec ID/Hint: MP3
Duration: 1h 44mn
Bit rate mode: Variable
Bit rate: 118 Kbps
Minimum bit rate: 128 Kbps
Channel(s): 2 channels
Sampling rate: 48.0 KHz
Resolution: 16 bits
Stream size: 88.7 MiB
Writing library: LAME3.97
Encoding settings: ABR
Language: english



*******************************************************************************
Screenshots
*******************************************************************************

Link (1986)DVDRipKooKoo preview 0
Link (1986)DVDRipKooKoo preview 1
Link (1986)DVDRipKooKoo preview 2
Link (1986)DVDRipKooKoo preview 3


*******************************************************************************
DVDCover
*******************************************************************************

Link (1986)DVDRipKooKoo preview 4



Enjoy and keep this alive. The more you seed the quicker I can share my stuff with you.
~KooKoo

You can find me at h33t.com and DarksideRg

related torrents

Torrent name

health leech seeds Size

Maniac Cop DVDRipkooKoo

2 2 829.03 MB 0
 


comments (0)

Main Menu