TV - Other

POPEYE THE SAILOR MAN 3 DISC COLLECTORS EDITION BOXSET DISC THREE[DVDRIP][ENG] KIDZCORNER

  • Download 5x Faster
  • Download torrent
  • Direct Download
  • Rate this torrent +  |  -

Torrent info

Name:POPEYE THE SAILOR MAN 3 DISC COLLECTORS EDITION BOXSET DISC THREE[DVDRIP][ENG] KIDZCORNER

Total Size: 714.01 MB

Magnet: Magnet Link

Seeds: 4

Leechers: 1

Stream: Watch Online @ Movie4u

Last Updated: 0000-00-00 00:00:00 (Update Now)

Torrent added: 2009-08-24 01:59:53





Torrent Files List


Torrent downloaded from Demonoid.com-1.txt (Size: 714.01 MB) (Files: 3)

 Torrent downloaded from Demonoid.com-1.txt

0.05 KB

 FRONT.jpg

27.48 KB

 disc3.avi

713.99 MB
 

Announce URL: http://inferno.demonoid.com:3408/announce

Torrent description

THE FINAL DISC IN THE COLLECTION

DISC 3 OFF 3

VOver thirty classic cartoon starring the pipe-smoking, spinach-munching sailor-man. Episodes include: 'With Little Swee' Pea', 'Popeye Meets Sinbad The Sailor', 'I'm In The Army Now', 'The Paneless Window Washer', 'I Never Changes My Altitude', and 'Popeye Meets Ali Baba's Forty Thieves'. Also 'A Date To Skate', 'Customers Wanted', 'Aladdin And His Wonderful Lamp', 'Me Musical
Nephews', 'Shuteye Popeye', 'Big Bad Sinbad', 'Ancient Fistory', 'Floor Flusher', 'Popeye's 20th Anniversary' 'Taxi-Turvey', 'Bride And Groom', 'Greek Mirthology', 'Fright To The Finish', 'Private Eye Popeye', 'Gopher Spinach', 'Cooking With Gags', 'Ot To Punch', 'Assault And Flattery', 'Insect To Injury', 'Parlez Vous Woo', 'I Don't Scare', 'A Haul In One', 'Nearlyweds', 'Patriotic Popeye', 'Spress Lunch' and 'Spooky Swabs'.

General
Complete name : C:\Users\joker\Documents\POPEYE THE SAILOR MAN 3 DISC-COLLECTORS EDITION BOXSET-DISC THREE[DVDRIP][ENG]-KIDZCORNER\disc3.avi
Format : AVI
Format/Info : Audio Video Interleave
File size : 714 MiB
Duration : 1h 14mn
Overall bit rate : 1 340 Kbps

Video
Format : MPEG-4 Visual
Format profile : [email protected]
Format settings, BVOP : No
Format settings, QPel : No
Format settings, GMC : No warppoints
Format settings, Matrix : Default
Codec ID : XVID
Codec ID/Hint : XviD
Duration : 1h 14mn
Bit rate : 1 200 Kbps
Width : 640 pixels
Height : 480 pixels
Display aspect ratio : 4/3
Frame rate : 25.000 fps
Resolution : 24 bits
Colorimetry : 4:2:0
Scan type : Progressive
Bits/(Pixel*Frame) : 0.156
Stream size : 639 MiB (90%)
Writing library : Magic0432

Audio
Format : MPEG Audio
Format version : Version 1
Format profile : Layer 3
Codec ID : 55
Codec ID/Hint : MP3
Duration : 1h 14mn
Bit rate mode : Constant
Bit rate : 128 Kbps
Channel(s) : 2 channels
Sampling rate : 44.1 KHz
Resolution : 16 bits
Stream size : 68.2 MiB (10%)
Alignment : Aligned on interleaves
Interleave, duration : 26 ms (0.65 video frame)

related torrents

Torrent name

health leech seeds Size
 

comments (0)

Main Menu