Jazz

Gal Gjurin Srce

  • Download 5x Faster
  • Download torrent
  • Direct Download
  • Rate this torrent +  |  -
Gal Gjurin Srce

Anonymous and Free Direct Download 300GB+


Torrent info

Name:Gal Gjurin Srce

Total Size: 312.32 MB

Magnet: Magnet Link

Seeds: 0

Leechers: 4

Stream: Watch Online @ Movie4u

Last Updated: 2010-12-25 20:20:23 (Update Now)

Torrent added: 2009-08-24 01:45:52



VPN For Torrents

Torrent Files List


Gal Gjurin - Srce.log (Size: 312.32 MB) (Files: 14)

 Gal Gjurin - Srce.log

5.05 KB

 folder.jpg

77.25 KB

 12-Nekoč nekje.flac

23.72 MB

 11-Veliki pobeg.flac

27.80 MB

 10-Včasih.flac

26.00 MB

 09-Svila in lan.flac

26.21 MB

 08-Nore stvari.flac

25.38 MB

 07-Objemi me nežno.flac

28.02 MB

 06-Kaj vse bi dal.flac

23.49 MB

 05-Daj, povej.flac

26.31 MB

 04-Srce.flac

23.63 MB

 03-Jaz ne pripadam.flac

27.17 MB

 02-Dva, ki ležita.flac

25.06 MB

 01-Čas bo na moji strani.flac

29.46 MB
 

Announce URL: http://open.tracker.thepiratebay.org/announce

Torrent description

Gal Gjurin - SRCE

Exact Audio Copy V0.99 prebeta 4 from 23. January 2008

EAC extraction logfile from 23. April 2009, 14:58

Gal Gjurin / Srce

Used drive : Optiarc DVD RW AD-7203A Adapter: 1 ID: 0

Read mode : Secure
Utilize accurate stream : Yes
Defeat audio cache : Yes
Make use of C2 pointers : No

Read offset correction : 48
Overread into Lead-In and Lead-Out : No
Fill up missing offset samples with silence : Yes
Delete leading and trailing silent blocks : No
Null samples used in CRC calculations : Yes
Used interface : Native Win32 interface for Win NT & 2000
Gap handling : Appended to previous track

Used output format : User Defined Encoder
Selected bitrate : 128 kBit/s
Quality : High
Add ID3 tag : No
Command line compressor : C:\Program Files\Exact Audio Copy\Flac\flac.exe
Additional command line options : -V -8 -T "artist=%a" -T "title=%t" -T "album=%g" -T "date=%y" -T "tracknumber=%n" -T "genre=%m" %s


TOC of the extracted CD

Track | Start | Length | Start sector | End sector
---------------------------------------------------------
1 | 0:00.00 | 3:49.17 | 0 | 17191
2 | 3:49.17 | 3:56.52 | 17192 | 34943
3 | 7:45.69 | 3:52.15 | 34944 | 52358
4 | 11:38.09 | 3:54.72 | 52359 | 69980
5 | 15:33.06 | 4:05.48 | 69981 | 88403
6 | 19:38.54 | 3:57.00 | 88404 | 106178
7 | 23:35.54 | 4:21.46 | 106179 | 125799
8 | 27:57.25 | 3:36.30 | 125800 | 142029
9 | 31:33.55 | 4:03.29 | 142030 | 160283
10 | 35:37.09 | 4:46.52 | 160284 | 181785
11 | 40:23.61 | 4:14.72 | 181786 | 200907
12 | 44:38.58 | 4:36.19 | 200908 | 221626


Track 1

Filename C:\tmp\EAC\Gal Gjurin\Srce\01-?as bo na moji strani.wav

Pre-gap length 0:00:02.00

Peak level 98.8 %
Track quality 100.0 %
Copy CRC A4F7F7AF
Track not present in AccurateRip database
Copy OK

Track 2

Filename C:\tmp\EAC\Gal Gjurin\Srce\02-Dva, ki ležita.wav

Pre-gap length 0:00:00.49

Peak level 98.7 %
Track quality 100.0 %
Copy CRC 699B6CED
Track not present in AccurateRip database
Copy OK

Track 3

Filename C:\tmp\EAC\Gal Gjurin\Srce\03-Jaz ne pripadam.wav

Pre-gap length 0:00:00.49

Peak level 98.7 %
Track quality 100.0 %
Copy CRC 15C30608
Track not present in AccurateRip database
Copy OK

Track 4

Filename C:\tmp\EAC\Gal Gjurin\Srce\04-Srce.wav

Pre-gap length 0:00:00.49

Peak level 98.7 %
Track quality 100.0 %
Copy CRC FC90EDF5
Track not present in AccurateRip database
Copy OK

Track 5

Filename C:\tmp\EAC\Gal Gjurin\Srce\05-Daj, povej.wav

Pre-gap length 0:00:00.49

Peak level 98.9 %
Track quality 100.0 %
Copy CRC 6B1D679C
Track not present in AccurateRip database
Copy OK

Track 6

Filename C:\tmp\EAC\Gal Gjurin\Srce\06-Kaj vse bi dal.wav

Pre-gap length 0:00:00.49

Peak level 99.9 %
Track quality 100.0 %
Copy CRC FC1A0BB5
Track not present in AccurateRip database
Copy OK

Track 7

Filename C:\tmp\EAC\Gal Gjurin\Srce\07-Objemi me nežno.wav

Pre-gap length 0:00:00.49

Peak level 98.7 %
Track quality 100.0 %
Copy CRC 41B1A6F7
Track not present in AccurateRip database
Copy OK

Track 8

Filename C:\tmp\EAC\Gal Gjurin\Srce\08-Nore stvari.wav

Pre-gap length 0:00:00.49

Peak level 98.9 %
Track quality 100.0 %
Copy CRC EAF17F45
Track not present in AccurateRip database
Copy OK

Track 9

Filename C:\tmp\EAC\Gal Gjurin\Srce\09-Svila in lan.wav

Pre-gap length 0:00:00.49

Peak level 98.8 %
Track quality 99.9 %
Copy CRC 0E857DAA
Track not present in AccurateRip database
Copy OK

Track 10

Filename C:\tmp\EAC\Gal Gjurin\Srce\10-V?asih.wav

Pre-gap length 0:00:00.49

Peak level 98.8 %
Track quality 100.0 %
Copy CRC 00A032C9
Track not present in AccurateRip database
Copy OK

Track 11

Filename C:\tmp\EAC\Gal Gjurin\Srce\11-Veliki pobeg.wav

Pre-gap length 0:00:00.49

Peak level 98.7 %
Track quality 100.0 %
Copy CRC 4A3A6F4B
Track not present in AccurateRip database
Copy OK

Track 12

Filename C:\tmp\EAC\Gal Gjurin\Srce\12-Neko? nekje.wav

Pre-gap length 0:00:00.49

Peak level 98.7 %
Track quality 100.0 %
Copy CRC EF70A5C7
Track not present in AccurateRip database
Copy OK


None of the tracks are present in the AccurateRip database

No errors occurred

End of status report

related torrents

Torrent name

health leech seeds Size

Gal Costa Gal (1969)

0 0 219.09 MB 0

Gal Costa - Gal Costa

0 0 243.82 MB 0
 


comments (0)

Main Menu