Other

the hero of the five????? ???????

  • Download 5x Faster
  • Download torrent
  • Direct Download
  • Rate this torrent +  |  -
the hero of the five????? ???????

Download FREE And Anonymously


Torrent info

Name:the hero of the five????? ???????

Total Size: 2.52 GB

Magnet: Magnet Link

Seeds: 0

Leechers: 0

Stream: Watch Full Movie @ Movie4u

Last Updated: 2017-03-27 18:58:20 (Update Now)

Torrent added: 2009-08-24 01:37:06



VPN For Torrents

Torrent Files List


www.arabp2p.com.txt (Size: 2.52 GB) (Files: 28)

 www.arabp2p.com.txt

0.24 KB

 Khomasy.Ep25.avi

100.29 MB

 Khomasy.Ep26.avi

96.89 MB

 Khomasy.Ep23.avi

100.26 MB

 Khomasy.Ep24.avi

100.02 MB

 Khomasy.Ep21.avi

100.14 MB

 Khomasy.Ep22.avi

91.84 MB

 Khomasy.Ep19.avi

100.11 MB

 Khomasy.Ep20.avi

100.19 MB

 Khomasy.Ep17.avi

100.15 MB

 Khomasy.Ep18.avi

100.10 MB

 Khomasy.Ep15.avi

100.16 MB

 Khomasy.Ep16.avi

96.53 MB

 Khomasy.Ep13.avi

100.17 MB

 Khomasy.Ep14.avi

100.10 MB

 Khomasy.Ep11.avi

99.88 MB

 Khomasy.Ep12.avi

96.14 MB

 Khomasy.Ep09.avi

100.05 MB

 Khomasy.Ep10.avi

99.59 MB

 Khomasy.Ep08.avi

98.37 MB

 Khomasy.Ep06.avi

97.74 MB

 Khomasy.Ep07.avi

100.11 MB

 Khomasy.Ep04.avi

97.12 MB

 Khomasy.Ep05.avi

100.34 MB

 Khomasy.Ep02.avi

99.71 MB

 Khomasy.Ep03.avi

95.07 MB

 Khomasy.Ep01.avi

98.97 MB

 00Khomasy.Start.avi

5.49 MB
 

tracker

leech seeds
 

Torrent description

Format : AVI
Format/Info : Audio Video Interleave
File size : 100 MiB
Duration : 20mn 38s
Overall bit rate : 679 Kbps
Movie name : Khomasy - 23 - Arabic - kaiser - v2 - Shane54.avi
Director : Shane54
Subject : Khomasy - 23 - Arabic - kaiser - v2 - Shane54.avi
Writing application : Nandub v1.0rc2
Writing library : Nandub build 1853/release
Copyright : Shane54

Video
Format : MPEG-4 Visual
Codec ID : DIV3
Codec ID/Hint : DivX 3 Low
Duration : 20mn 38s
Bit rate : 555 Kbps
Width : 448 pixels
Height : 336 pixels
Display aspect ratio : 4/3
Frame rate : 25.000 fps
Resolution : 24 bits
Bits/(Pixel*Frame) : 0.147
Stream size : 81.9 MiB (82%)

Audio
Format : MPEG Audio
Format version : Version 1
Format profile : Layer 3
Codec ID : 55
Codec ID/Hint : MP3
Duration : 20mn 38s
Bit rate mode : Constant
Bit rate : 112 Kbps
Channel(s) : 2 channels
Sampling rate : 44.1 KHz
Resolution : 16 bits
Stream size : 16.5 MiB (16%)
Alignment : Aligned on interleaves
Interleave, duration : 26 ms (0.65 video frame)
Interleave, preload duration : 496 ms

related torrents

Torrent name

health leech seeds Size
 


comments (0)

Main Menu

 

script data-cfasync="false" src="//d2ghscazvn398x.cloudfront.net/?cshgd=690275">