Other

Karas The Revelation 2007

  • Download 5x Faster
  • Download torrent
  • Direct Download
  • Rate this torrent +  |  -
Karas The Revelation 2007

Anonymous and Direct Download 300GB+ free


Torrent info

Name:Karas The Revelation 2007

Total Size: 784.03 MB

Magnet: Magnet Link

Seeds: 0

Leechers: 0

Stream: Watch Online @ Movie4u

Last Updated: 2017-03-22 22:27:58 (Update Now)

Torrent added: 2009-08-24 01:35:43




Torrent Files List


Karas.The.Revelation.avi (Size: 784.03 MB) (Files: 1)

 Karas.The.Revelation.avi

784.03 MB
 

tracker

leech seeds
 

Torrent description

Complete name : Karas The Revelation
Director : Kei'ichi Sato
Year : 2007
Genre : Animation,Action,Adventure,Fantasy
IMDB : http://www.imdb.com/title/tt1263030/
Format : AVI
File size : 784 MiB
Duration : 1h 25mn
Overall bit rate : 1 284 Kbps

Video
Format : AVC
Format/Info : Advanced Video Codec
Format settings, ReFrames : 1 frame
Codec ID : H264
Duration : 1h 25mn
Bit rate : 825 Kbps
Nominal bit rate : 691 Kbps
Width : 704 pixels
Height : 400 pixels
Display aspect ratio : 16/9
Frame rate : 29.970 fps
Resolution : 24 bits
Colorimetry : 4:2:0
Scan type : Progressive
Bits/(Pixel*Frame) : 0.098
Stream size : 503 MiB (64%)
Writing library : x264 core 60


Audio
Format : AC-3
Format/Info : Audio Coding 3
Codec ID : 2000
Duration : 1h 25mn
Bit rate mode : Constant
Bit rate : 448 Kbps
Channel(s) : 6 channels
Channel positions : Front: L C R, Surround: L R, LFE
Sampling rate : 48.0 KHz
Stream size : 273 MiB (35%)
Alignment : Aligned on interleaves
Interleave, duration : 32 ms (0.96 video frame)
Interleave, preload duration : 32 ms


Plot
Picking up precisely where The Prophecy ends,
the new Karas, Otoha, seeks vengeance against the
Yakuza that murdered his buddy abd almost killed
him. Meanwhile the old Karas, Eko, unleashes his
wrath and contempt for the pitiful humans infesting
the city. Yurine, Nue and Otaha join forces for the
final epic battle to save the city and protect the
will of the people....as prophecy becomes revelation!

related torrents

Torrent name

health leech seeds Size

Karas The Revelation

0 0 784.03 MB 0
 


comments (0)

Main Menu