Other

Karas The Prophecy 2006

  • Download 5x Faster
  • Download torrent
  • Direct Download
  • Rate this torrent +  |  -
Karas The Prophecy 2006

Free and Direct Download with Usenet 300GB+ free


Torrent info

Name:Karas The Prophecy 2006

Total Size: 735.78 MB

Magnet: Magnet Link

Seeds: 0

Leechers: 3

Stream: Watch Online @ Movie4u

Last Updated: 2010-08-05 23:56:57 (Update Now)

Torrent added: 2009-08-24 01:35:42




Torrent Files List


Karas.The.Prophecy.avi (Size: 735.78 MB) (Files: 1)

 Karas.The.Prophecy.avi

735.78 MB
 

Announce URL: http://tracker.thepiratebay.org:80/announce

Torrent description

Complete name : Karas The Prophecy
Director : Kei'ichi Sato
Year : 2006
Genre : Animation,Action,Adventure,Fantasy
Source : Dvd
IMDB : http://www.imdb.com/title/tt0809927/
Format : AVI
File size : 736 MiB
Duration : 1h 19mn
Overall bit rate : 1 288 Kbps


Video
Format : AVC
Format/Info : Advanced Video Codec
Format settings, ReFrames : 1 frame
Codec ID : H264
Duration : 1h 19mn
Bit rate : 829 Kbps
Nominal bit rate : 769 Kbps
Width : 704 pixels
Height : 400 pixels
Display aspect ratio : 16/9
Frame rate : 29.970 fps
Resolution : 24 bits
Scan type : Progressive
Bits/(Pixel*Frame) : 0.098
Stream size : 473 MiB (64%)
Writing library : x264 core 60


Audio
Format : AC-3
Format/Info : Audio Coding 3
Codec ID : 2000
Duration : 1h 19mn
Bit rate mode : Constant
Bit rate : 448 Kbps
Channel(s) : 6 channels
Channel positions : Front: L C R, Surround: L R, LFE
Sampling rate : 48.0 KHz
Stream size : 256 MiB (35%)
Interleave, duration : 32 ms (0.96 video frame)
Interleave, preload duration : 32 ms

Plot
In a Japanese city haunted by nature spirits and demons, a
secret war is raging between the renegade demon Eko and a
spectral warrior known as the Karas. Eko has mechanized
himself and his followers to defend against the unearthly
fury of the Karas; in addition to an armored humanoid form,
the Karas can transform into any of various heavily armed
and armored vehicles. Eko and his followers prefer to live
in the material realm in human form, but to continue doing
so they must feed on the fluids of human bodies. Their
periodic feasts result in massacres that leave only a
single traumatized survivor; these "inexplicable" tragedies
are the obsession of a marginalized police inspector whose
daughter was the survivor of one such massacre. Opposing
Eko are the renegade demon Nue, who also lives in the
material world in human form but refuses to drink blood or
take a mechanized form, and Otoha, a former human who is
summoned by the mysterious Yurine to become the new Karas
IMDB

related torrents

Torrent name

health leech seeds Size

Karas The Prophecy avi

0 0 735.78 MB 0
 

comments (0)

Main Menu