Jazz

Dave Brubeck Paul Desmond: Carnagie Hall 1963 [Eac Flac Cue(JazzPlanet)[ultimafrontiera]

  • Download 5x Faster
  • Download torrent
  • Direct Download
  • Rate this torrent +  |  -

Torrent info

Name:Dave Brubeck Paul Desmond: Carnagie Hall 1963 [Eac Flac Cue(JazzPlanet)[ultimafrontiera]

Total Size: 359.93 MB

Magnet: Magnet Link

Seeds: 5

Leechers: 1

Stream: Watch Online @ Movie4u

Last Updated: 2011-01-16 06:10:41 (Update Now)

Torrent added: 2009-08-24 01:32:18





Torrent Files List


The Dave Brubeck Quartet with Paul Desmond - NYC, Carnegie Hall, Feb. 22, 1963.flac (Size: 359.93 MB) (Files: 7)

 The Dave Brubeck Quartet with Paul Desmond - NYC, Carnegie Hall, Feb. 22, 1963.flac

354.76 MB

 The Dave Brubeck Quartet with Paul Desmond - NYC, Carnegie Hall, Feb. 22, 1963.cue

1.48 KB

 NYC, Carnegie Hall, Feb. 22, 1963.log

2.60 KB

 artworks

  Brubeck desmond front.jpg

3.20 MB

  Brubeck desmond front 500.jpg

384.51 KB

  Brubeck desmond back.jpg

1.30 MB

  Brubeck desmond back 500 copy.jpg

304.86 KB
 

Announce URL: http://genesis.1337x.org:1337/announce

Torrent description

Titolo: N.Y.C., Carnagie Hall, February 22,1963
Anno: 1989
Genere: Cool Jazz
Fonte: CD Originale
Formato: Flac
Dimensione: 363 MB
Covers: Incluse

1. St. Louis Blues
2. Bossa Nova U.S.A.
3. For All We Know
4. Pennies From Haeven
5. Southern Scene (Briar Bush)
6. Three To Get Ready
7. Blue Rondo A La Turk
8. Take Five


Exact Audio Copy V0.99 prebeta 3 from 28. July 2007

EAC extraction logfile from 16. December 2008, 15:43

The Dave Brubeck Quartet with Paul Desmond / NYC, Carnegie Hall, Feb. 22, 1963

Used drive : SONY DVD RW AW-G910A Adapter: 0 ID: 0

Read mode : Secure
Utilize accurate stream : Yes
Defeat audio cache : Yes
Make use of C2 pointers : No

Read offset correction : 48
Overread into Lead-In and Lead-Out : No
Fill up missing offset samples with silence : Yes
Delete leading and trailing silent blocks : No
Null samples used in CRC calculations : Yes
Used interface : Installed external ASPI interface

Used output format : User Defined Encoder
Selected bitrate : 1024 kBit/s
Quality : High
Add ID3 tag : No
Command line compressor : C:\Program Files\Exact Audio Copy\FLAC\FLAC.EXE
Additional command line options : -8 -V -T "ARTIST=%a" -T "TITLE=%t" -T "ALBUM=%g" -T "DATE=%y" -T "TRACKNUMBER=%n" -T "GENRE=%m" -T "COMMENT=%e" %s -o %d


TOC of the extracted CD

Track | Start | Length | Start sector | End sector
---------------------------------------------------------
1 | 0:00.33 | 11:11.72 | 33 | 50429
2 | 11:12.30 | 7:23.55 | 50430 | 83709
3 | 18:36.10 | 9:39.48 | 83710 | 127182
4 | 28:15.58 | 10:10.50 | 127183 | 172982
5 | 38:26.33 | 7:09.00 | 172983 | 205157
6 | 45:35.33 | 6:17.10 | 205158 | 233442
7 | 51:52.43 | 12:27.57 | 233443 | 289524
8 | 64:20.25 | 6:47.23 | 289525 | 320072


Range status and errors

Selected range

Filename C:\Documents and Settings\Admin\Desktop\brubeck\The Dave Brubeck Quartet with Paul Desmond - NYC, Carnegie Hall, Feb. 22, 1963.wav

Peak level 78.2 %
Range quality 100.0 %
Test CRC CC5A9C24
Copy CRC CC5A9C24
Copy OK

No errors occurred


AccurateRip summary

Track 1 accurately ripped (confidence 3) [25A034F6]
Track 2 accurately ripped (confidence 3) [42581A7C]
Track 3 accurately ripped (confidence 3) [60A6D46B]
Track 4 accurately ripped (confidence 3) [ADC08594]
Track 5 accurately ripped (confidence 3) [CFA3D897]
Track 6 accurately ripped (confidence 3) [A801E2F3]
Track 7 accurately ripped (confidence 3) [EA62ED66]
Track 8 accurately ripped (confidence 3) [A8742DBA]

All tracks accurately ripped

End of status report

related torrents

Torrent name

health leech seeds Size
 

comments (0)

Main Menu