Jazz

Danilo Perez Danilo Perez (1993) [FLAC]

  • Download 5x Faster
  • Download torrent
  • Direct Download
  • Rate this torrent +  |  -
Danilo Perez Danilo Perez (1993) [FLAC]

Free and Direct Download with Usenet 300GB+ free


Torrent info

Name:Danilo Perez Danilo Perez (1993) [FLAC]

Total Size: 426.42 MB

Magnet: Magnet Link

Seeds: 2

Leechers: 2

Stream: Watch Online @ Movie4u

Last Updated: 2010-12-01 01:52:58 (Update Now)

Torrent added: 2009-08-24 01:31:40




Torrent Files List


Torrent downloaded from Demonoid.com.txt (Size: 426.42 MB) (Files: 29)

 Torrent downloaded from Demonoid.com.txt

0.05 KB

 Share!.txt

0.00 KB

 Thumb.jpg

4.79 KB

 Scans

  Tray.png

12.94 MB

  Disc.png

9.83 MB

  Booklet 006.png

17.29 MB

  Booklet 005.png

14.92 MB

  Booklet 004.png

14.93 MB

  Booklet 003.png

14.51 MB

  Booklet 002.png

18.33 MB

  Booklet 001.png

16.23 MB

 Range (wav).cue

1.26 KB

 Pregap.log

1.85 KB

 Playlist.m3u

0.67 KB

 Info.txt

1.20 KB

 EAC.log

4.85 KB

 Danilo Perez (wav noncompliant).cue

1.59 KB

 Danilo Perez (flac noncompliant).cue

1.60 KB

 10 - Skylark.flac

13.61 MB

 09 - Friday Morning.flac

28.98 MB

 08 - Time on my Hands.flac

55.87 MB

 07 - Claudio.flac

21.60 MB

 06 - Body and Soul.flac

31.97 MB

 05 - Irremediablemente Solo.flac

49.93 MB

 04 - Solo Contigo Basta.flac

28.69 MB

 03 - Alfonsina y El Mar.flac

43.35 MB

 02 - Serenata.flac

8.98 MB

 01 - Panama Libre.flac

24.43 MB

 00 - Pregap.flac

8.18 KB
 

Announce URL: http://inferno.demonoid.com:3417/announce

Torrent description

DANILO PEREZ

01. Panama Libre
02. Serenata
03. Alfonsina y El Mar
04. Salo Contigo Basta
05. Irremediableniente Solo
06. Body and Soul
07. Claudio
08. Time On My Hands
09. Friday Morning
10. Skylark

Danilo Perez - piano
Santi Debriano - bass
Jack DeJohnette - drums
Joe Lovano - tenor and soprano saxophones
David Sánchez - tenor and soprano saxophones
Rubin Blades - vocals

Produced by Kathryn King
Art Direction: Jacqueline Murphy
Design: Daniela Barcele
Photography: Joe Grant
© 1993 BMG


Panamanian pianist Danilo Perez presents himself as a formidable improviser on his debut album. The classically trained Perez worked with Dizzy Gillespie and Paquito d'Rivera before setting out on his own, and his groundings in bop harmonic invention and his rhythmic nuances of salsa are evident here. Perez offers a dazzling program of originals, standards, and vintage Cuban salsa. Perez is surrounded by quality sidemen including Santi Debriano on bass, Jack DeJohnette on drums, Joe Lovano and David Sanchez on tenor and soprano saxophones and vocalist Ruben Blades, who gives outstanding performances on the American standard "Skylark" and the classic Latin bolero "Solo Contigo Basta."
--John Swenson

Exact Audio Copy V0.99 prebeta 4 from 23. January 2008

EAC extraction logfile from 23. April 2008, 12:12

Danilo Perez / Danilo Perez

Used drive : PIONEER DVD-RW DVR-109 Adapter: 1 ID: 0

Read mode : Secure
Utilize accurate stream : Yes
Defeat audio cache : Yes
Make use of C2 pointers : No

Read offset correction : 48
Overread into Lead-In and Lead-Out : No
Fill up missing offset samples with silence : Yes
Delete leading and trailing silent blocks : No
Null samples used in CRC calculations : Yes
Used interface : Installed external ASPI interface
Gap handling : Appended to previous track

Used output format : User Defined Encoder
Selected bitrate : 768 kBit/s
Quality : High
Add ID3 tag : No
Command line compressor : C:\Program Files\Exact Audio Copy\FLAC\FLAC.EXE
Additional command line options : -8 -V -T "ARTIST=%a" -T "TITLE=%t" -T "ALBUM=%g" -T "DATE=%y" -T "TRACKNUMBER=%n" -T "GENRE=%m" -T "COMMENT=EAC FLAC -8" %s


TOC of the extracted CD

Track | Start | Length | Start sector | End sector
---------------------------------------------------------
1 | 0:00.32 | 4:07.70 | 32 | 18626
2 | 4:08.27 | 2:42.43 | 18627 | 30819
3 | 6:50.70 | 7:49.10 | 30820 | 66004
4 | 14:40.05 | 5:24.12 | 66005 | 90316
5 | 20:04.17 | 8:23.60 | 90317 | 128101
6 | 28:28.02 | 6:56.15 | 128102 | 159316
7 | 35:24.17 | 3:33.08 | 159317 | 175299
8 | 38:57.25 | 10:00.52 | 175300 | 220351
9 | 48:58.02 | 4:51.13 | 220352 | 242189
10 | 53:49.15 | 3:32.10 | 242190 | 258099


Track 1

Filename D:\Jazz\Danilo Perez - Danilo Perez (1993) [FLAC]\01 - Panama Libre.wav

Pre-gap length 0:00:02.32

Peak level 95.0 %
Track quality 100.0 %
Test CRC 23C00B30
Copy CRC 23C00B30
Track not present in AccurateRip database
Copy OK

Track 2

Filename D:\Jazz\Danilo Perez - Danilo Perez (1993) [FLAC]\02 - Serenata.wav

Peak level 58.5 %
Track quality 100.0 %
Test CRC 55F42144
Copy CRC 55F42144
Track not present in AccurateRip database
Copy OK

Track 3

Filename D:\Jazz\Danilo Perez - Danilo Perez (1993) [FLAC]\03 - Alfonsina y El Mar.wav

Pre-gap length 0:00:00.38

Peak level 93.5 %
Track quality 100.0 %
Test CRC A78134C6
Copy CRC A78134C6
Track not present in AccurateRip database
Copy OK

Track 4

Filename D:\Jazz\Danilo Perez - Danilo Perez (1993) [FLAC]\04 - Solo Contigo Basta.wav

Pre-gap length 0:00:00.40

Peak level 67.5 %
Track quality 100.0 %
Test CRC 63D10C92
Copy CRC 63D10C92
Track not present in AccurateRip database
Copy OK

Track 5

Filename D:\Jazz\Danilo Perez - Danilo Perez (1993) [FLAC]\05 - Irremediablemente Solo.wav

Pre-gap length 0:00:00.25

Peak level 90.4 %
Track quality 100.0 %
Test CRC 6372222F
Copy CRC 6372222F
Track not present in AccurateRip database
Copy OK

Track 6

Filename D:\Jazz\Danilo Perez - Danilo Perez (1993) [FLAC]\06 - Body and Soul.wav

Pre-gap length 0:00:00.12

Peak level 81.7 %
Track quality 100.0 %
Test CRC C6D6E036
Copy CRC C6D6E036
Track not present in AccurateRip database
Copy OK

Track 7

Filename D:\Jazz\Danilo Perez - Danilo Perez (1993) [FLAC]\07 - Claudio.wav

Peak level 93.4 %
Track quality 100.0 %
Test CRC 214A5E36
Copy CRC 214A5E36
Track not present in AccurateRip database
Copy OK

Track 8

Filename D:\Jazz\Danilo Perez - Danilo Perez (1993) [FLAC]\08 - Time on my Hands.wav

Peak level 95.4 %
Track quality 99.9 %
Test CRC 034A0B8D
Copy CRC 034A0B8D
Track not present in AccurateRip database
Copy OK

Track 9

Filename D:\Jazz\Danilo Perez - Danilo Perez (1993) [FLAC]\09 - Friday Morning.wav

Pre-gap length 0:00:00.02

Peak level 87.7 %
Track quality 100.0 %
Test CRC CBFB1C57
Copy CRC CBFB1C57
Track not present in AccurateRip database
Copy OK

Track 10

Filename D:\Jazz\Danilo Perez - Danilo Perez (1993) [FLAC]\10 - Skylark.wav

Pre-gap length 0:00:00.55

Peak level 42.0 %
Track quality 100.0 %
Test CRC 2B8F01A8
Copy CRC 2B8F01A8
Track not present in AccurateRip database
Copy OK


None of the tracks are present in the AccurateRip database

No errors occurred

End of status report

related torrents

Torrent name

health leech seeds Size

Danilo Perez rar mp3

0 0 20.56 MB 0
 

comments (0)

Main Menu