Action

Wanted (2008) Proper R5 1337x By {Noir}

  • Download 5x Faster
  • Download torrent
  • Direct Download
  • Rate this torrent +  |  -
Wanted (2008) Proper R5 1337x By {Noir}

Anonymous and Direct Download 300GB+ free


Torrent info

Name:Wanted (2008) Proper R5 1337x By {Noir}

Total Size: 725.08 MB

Magnet: Magnet Link

Seeds: 0

Leechers: 0

Stream: Watch Online @ Movie4u

Last Updated: 2011-02-04 13:14:14 (Update Now)

Torrent added: 2008-07-27 12:48:59




Torrent Files List


1337x.Org.txt (Size: 725.08 MB) (Files: 5)

 1337x.Org.txt

0.03 KB

 Noir.nfo

4.94 KB

 Subs

  Wanted (2008) [1337x] R5 By {Noir}.idx

38.14 KB

  Wanted (2008) [1337x] R5 By {Noir}.sub

3.57 MB

 Wanted (2008) [Proper] R5 [1337x] By {Noir}.avi

721.47 MB
 

Announce URL: http://genesis.1337x.org:1337/announce

Torrent description

Wanted (2008) Proper R5 1337x By {Noir} preview 0

Screenshots

Wanted (2008) Proper R5 1337x By {Noir} preview 1

Wanted (2008) Proper R5 1337x By {Noir} preview 2

Wanted (2008) Proper R5 1337x By {Noir} preview 3

Wanted (2008) Proper R5 1337x By {Noir} preview 4

_____________________________________________________________________________
▓▓▓▓▓▓
▓█████▓ ▓▓▓▓
▓██████▓ ▓▓███▓
▓▓██████▓ ▓████▓▓▓▓▓▓
▓██████▓ ▓██▒█▓▓███▓▓ ▓▓▓▓▓▓▓▓▓▓▓▓▓
▓██▒████▓ ▓██▒█▓██████▓▓███▓███▓███▓▓
▓██▒▒████▓ ▓██▒███▒▒▒▒██▓████████████▓
▓██▒▒▒▒███▓ ▓██▒██▒▒▒▒▒▒███▒▒▒██▒█▒▒▒██▓▓
▓██▒▒██▒▒██▓▓██▒██▒▒█▒▒▒▒███████▒▒▒▒▒▒██▓
▓██▒▒███▒▒██▓██▒██▒█▓█▒▒▒██▒▒▒██▒▒██▒▒▒█▓
▓██▒▒████▒▒████▒██▒█▓█▒▒▒██▒▒▒██▒▒███▒██▓
▓██▒▒█▓███▒▒███▒██▒▒█▒▒▒▒██▒▒▒██▒▒██████▓
▓██▒▒█▓▓███▒▒██▒██▒▒▒▒▒▒▒██▒▒▒██▒▒██▓███▓
▓▓██▒▒█▓ ▓███▒▒█▒██▒▒▒▒▒▒▒███████▒▒██▓▓▓▓▓
▓▓███▒▒█▓ ▓███▒▒▒███▒▒▒▒▒██▓▓▓▓██▒▒██▓
▓████▒▒█▓ ▓███▒▒█████████▓▓ ▓██▒▒██▓
▓████▒▒█▓ ▓███▒█▓██████▓▓▓ ▓██████▓
▓███████▓ ▓▓████▓▓▓▓▓▓▓▓ ▓▓▓▓▓▓▓▓
▓▓▓▓▓▓▓▓▓ ▓▓▓▓▓
_____________________________________________________________________________



*******************************************************************************
Wanted (2008)
*******************************************************************************

Better and Louder audio, You may hear a click or two every now and then but
other than that the sound is clear. Enjoy

-------------------------------------------------------------------------------
General Information
-------------------------------------------------------------------------------
Type : Movie
Format : AVI
Format/Info : Audio Video Interleave
File size : 721 MiB
Duration : 1h 38mn
Subtitles : Romanian
Source : Dvd R5
Genre : Action | Drama | Thriller
IMDB Link : http://www.imdb.com/title/tt0493464/
Rating : 7.4/10

Video
Format : MPEG-4 Visual
Format settings, BVOP : Yes
Format settings, QPel : No
Format settings, GMC : No warppoints
Format settings, Matrix : Default
Codec ID : DX50/60
Codec ID/Hint : DivX
Duration : 1h 38mn
Bit rate : 890 Kbps
Width : 608 pixels
Height : 256 pixels
Display aspect ratio : 2.35
Frame rate : 25.000 fps
Resolution : 8 bits
Colorimetry : 4:2:0
Scan type : Progressive
Bits/(Pixel*Frame) : 0.229
Stream size : 625 MiB (87%)

Audio
Format : MPEG Audio
Format version : Version 1
Format profile : Layer 3
Codec ID : 55
Codec ID/Hint : MP3
Duration : 1h 38mn
Bit rate mode : Constant
Bit rate : 128 Kbps
Minimum bit rate : 128 Kbps
Channel(s) : 2 channels
Sampling rate : 48.0 KHz
Resolution : 16 bits
Stream size : 89.9 MiB (12%)
Alignment : Aligned on interleaves
Interleave, duration : 40 ms (1.00 video frame)
Interleave, preload duration : 504 ms
Writing library : LAME3.97
Encoding settings : CBR
-------------------------------------------------------------------------------
Description
-------------------------------------------------------------------------------
A young man named Wesley Gibson is introduced. He works at a dead-end
job with an over-bearing boss. His live-in girlfriend is sleeping with
his best friend, and his voice-over says that he is finding it difficult
to care about anything. One night, at the pharmacy, Wesley meets a
mysterious woman who tells him that his father was an elite assassin
who had been killed the day before. Wesley does not believe this; he
tells the woman that his father abandoned him a week after his birth.
At that moment, Cross appears, gun in hand. The woman opens fire on Cross.
Wesley and the woman escape from the resulting shoot-out and have a wild
car chase in the streets of Chicago.
-------------------------------------------------------------------------------
Post Information
-------------------------------------------------------------------------------
Posted by............: Noir
Posted on............: 7/27/2008

Wanted (2008) Proper R5 1337x By {Noir} preview 5

Wanted (2008) Proper R5 1337x By {Noir} preview 6

related torrents

Torrent name

health leech seeds Size
 


comments (0)

Main Menu