TV - Other

Nikola Staffel 2 DVDRip Xvid

  • Download 5x Faster
  • Download torrent
  • Direct Download
  • Rate this torrent +  |  -
Nikola Staffel 2 DVDRip Xvid

Anonymous and Free Direct Download 300GB+


Torrent info

Name:Nikola Staffel 2 DVDRip Xvid

Total Size: 1.16 GB

Magnet: Magnet Link

Seeds: 0

Leechers: 0

Stream: Watch Online @ Movie4u

Last Updated: 2015-09-07 12:51:27 (Update Now)

Torrent added: 2009-08-24 01:16:42



VPN For Torrents

Torrent Files List


serienjunkies_cover_nikpyh.jpg (Size: 1.16 GB) (Files: 8)

 serienjunkies_cover_nikpyh.jpg

125.81 KB

 Nikola - S02E06 - Hängen im Schacht.avi

198.60 MB

 Nikola - S02E04 - Is' was Doc.avi

199.03 MB

 Nikola - S02E05 - Hoher Besuch.avi

197.94 MB

 Nikola - S02E03 - Der Traumtyp.avi

198.60 MB

 Nikola - S02E01 - Das Gerücht.avi

198.00 MB

 Nikola - S02E02 - Ding Dong.avi

198.39 MB

 nfo.nfo

3.04 KB
 

tracker

leech seeds
 

Torrent description

Krankenschwester Nikola (Mariele Millowitsch) nimmt einen Job in der Rheintalklinik an, wo sich ein gewisser
Dr. Robert Schmidt (Walter Sittler) für den besten Arzt der gesamten Menschheit hält. Die beiden gehen sofort
auf Konfrontationskurs und beglücken die Zuschauer mit einem witzigen Katz & Maus-Spiel. Dabei wird Nikola mehr
oder auch weniger von ihrem besten Freund Tim (Oliver Reinhard) unterstützt, der allerdings eine absolute Tratschtante
ist. Auch Nikolas Kinder (Friederike Grasshoff, Eric Benz) machen ihr manchmal ganz schön zu schaffen. Die Beziehung
zu Dr. Schmidt wird allerdings in all den Jahren immer komplizierter: Sie küssen sich, gestehen sich gegenseitig
ihre Liebe und schlafen miteinander. Eine Beziehung zu beginnen, ist den beiden natürlich viel zu einfach.

2. Staffel
14. Das Gerücht
15. Ding Dong
16. Der Traumtyp
17. Is' was Doc?
18. Hoher Besuch
19. Hängen im Schacht

Format : AVI
Format/Info : Audio Video Interleave
Dateigröße : 199 MiB
Duration : 23min
Gesamte Bitrate : 1175 Kbps
Verwendetes Programm : FairUse Wizard - http://fairusewizard.com
verwendete Encoder-Bibliothek : The best and REALLY easy backup tool

Format : MPEG-4 Visual
Format profile : Streaming [email protected]
Format settings, BVOP : Ja
Format settings, QPel : Nein
Format settings, GMC : No warppoints
Format settings, Matrix : Default
Muxing mode : Packet Bitstream
Codec ID : XVID
Codec ID/Hint : XviD
Duration : 23min
Bitrate : 1037 Kbps
Breite : 512 Pixel
Höhe : 384 Pixel
Bildseitenverhältnis : 4/3
Bildwiederholungsrate : 25.000 FPS
Auflösung : 8 bits
Colorimetry : 4:2:0
Scan type : Progressive
Bits/(Pixel*Frame) : 0.211
Stream size : 175 MiB (88%)
verwendete Encoder-Bibliothek : XviD 1.2.0.dev47 (UTC 2006-11-01)

Format : MPEG Audio
Format version : Version 1
Format profile : Layer 3
Codec ID : 55
Codec ID/Hint : MP3
Duration : 23min
Bitraten-Modus : Constant
Bitrate : 128 Kbps
Minimum bit rate : 128 Kbps
Kanäle : 2 Kanäle
Samplingrate : 48.0 KHz
Auflösung : 16 bits
Stream size : 21.6 MiB (11%)
Alignment : Aligned on interleaves
Interleave, duration : 40 ms (1.00 video frame)
Interleave, preload duration : 504 ms
verwendete Encoder-Bibliothek : LAME3.97
Kodierungseinstellungen : CBR

related torrents

Torrent name

health leech seeds Size
 


comments (0)

Main Menu