Jazz

(JazzPlanet)Stanley Clarke, Al Di Meola, Jean Luc Ponty The Rite Of Strings[Eac Flac Cue] UF SPG

  • Download 5x Faster
  • Download torrent
  • Direct Download
  • Rate this torrent +  |  -

Torrent info

Name:(JazzPlanet)Stanley Clarke, Al Di Meola, Jean Luc Ponty The Rite Of Strings[Eac Flac Cue] UF SPG

Total Size: 283.68 MB

Magnet: Magnet Link

Seeds: 0

Leechers: 0

Stream: Watch Online @ Movie4u

Last Updated: 2015-05-23 17:12:52 (Update Now)

Torrent added: 2009-08-24 00:57:48




Torrent Files List


The Rite Of Strings.cue (Size: 283.68 MB) (Files: 16)

 The Rite Of Strings.cue

1.84 KB

 Stanley Clarke, Al Di Meola, Jean-Luc Ponty - The Rite Of Strings.m3u

0.24 KB

 Stanley Clarke, Al Di Meola, Jean-Luc Ponty - The Rite Of Strings.log

4.87 KB

 booklet_002.png

3.34 MB

 cd_001.png

273.41 KB

 back_001.png

572.45 KB

 booklet_001.png

1.60 MB

 09 - Memory Canyon.flac

31.04 MB

 08 - La Cancion De Sofia.flac

43.31 MB

 06 - Morocco.flac

29.29 MB

 07 - Change Of Life.flac

27.39 MB

 04 - Chilean Pipe Song.flac

31.25 MB

 05 - Topanga.flac

27.42 MB

 03 - Song To John [Dedicated To John Coltrane].flac

30.71 MB

 01 - Indigo.flac

34.55 MB

 02 - Renassaince.flac

22.94 MB
 

tracker

leech seeds
 

Torrent description

Stanley Clarke, Al Di Meola, Jean-Luc Ponty - The Rite Of Strings

Titolo: The Rite Of Strings
Artista / Gruppo: Stanley Clarke, Al Di Meola, Jean-Luc Ponty
Genere: Jazz / Post Bop / Fusion / Contemporary Jazz
Data di uscita: 1995
Anno di registrazione: 1995
Casa discografica: Stretch Records
Numero dischi: 2
Registrazione: Studio
Stereo: Stereo
Format: Flac 1.2.1b compressione: 8
Fonte: internet
Dimensioni: 287 Mb
Cover e Booklet: inside

Tracklist

1. Indigo
2. Renassaince
3. Song to John (Dedicated To John Coltrane)
4. Chilean Pipe Song
5. Topanga
6. Morocco
7. Change of Life
8. La Cancion de Sofia
9. Memory Canyon

Personnel

Stanley Clarke (acoustic bass)
Al Di Meola (acoustic guitar)
Jean-Luc Ponty (acoustic violin)

EAC

Exact Audio Copy V0.99 prebeta 5 from 4. May 2009

EAC extraction logfile from 3. August 2009, 23:03

Stanley Clarke, Al Di Meola, Jean-Luc Ponty / The Rite Of Strings

Used drive : PIONEER DVD-RW DVR-111L Adapter: 0 ID: 0

Read mode : Secure
Utilize accurate stream : Yes
Defeat audio cache : Yes
Make use of C2 pointers : No

Read offset correction : 48
Overread into Lead-In and Lead-Out : No
Fill up missing offset samples with silence : Yes
Delete leading and trailing silent blocks : No
Null samples used in CRC calculations : Yes
Used interface : Native Win32 interface for Win NT & 2000
Gap handling : Appended to previous track

Used output format : User Defined Encoder
Selected bitrate : 1024 kBit/s
Quality : High
Add ID3 tag : No
Command line compressor : C:\Program Files\FLAC\flac.exe
Additional command line options : -8 -V -T "ARTIST=%a" -T "TITLE=%t" -T "ALBUM=%g" -T "DATE=%y" -T "TRACKNUMBER=%n" -T "GENRE=%m" -T "COMMENT=EAC FLAC -8" %s


TOC of the extracted CD

Track | Start | Length | Start sector | End sector
---------------------------------------------------------
1 | 0:00.00 | 7:12.07 | 0 | 32406
2 | 7:12.07 | 4:36.15 | 32407 | 53121
3 | 11:48.22 | 6:03.53 | 53122 | 80399
4 | 17:52.00 | 6:14.67 | 80400 | 108516
5 | 24:06.67 | 5:56.35 | 108517 | 135251
6 | 30:03.27 | 5:44.55 | 135252 | 161106
7 | 35:48.07 | 5:29.23 | 161107 | 185804
8 | 41:17.30 | 8:33.37 | 185805 | 224316
9 | 49:50.67 | 5:59.45 | 224317 | 251286


Track 1

Filename C:\Stanley Clarke, Al Di Meola, Jean-Luc Ponty - The Rite Of Strings (1995)\01 - Indigo.wav

Pre-gap length 0:00:02.00

Peak level 89.8 %
Track quality 100.0 %
Test CRC 014D76A7
Copy CRC 014D76A7
Accurately ripped (confidence 30) [5B89FCE7]
Copy OK

Track 2

Filename C:\Stanley Clarke, Al Di Meola, Jean-Luc Ponty - The Rite Of Strings (1995)\02 - Renassaince.wav

Pre-gap length 0:00:01.37

Peak level 90.2 %
Track quality 100.0 %
Test CRC 92A14F2E
Copy CRC 92A14F2E
Accurately ripped (confidence 30) [0F71783A]
Copy OK

Track 3

Filename C:\Stanley Clarke, Al Di Meola, Jean-Luc Ponty - The Rite Of Strings (1995)\03 - Song To John [Dedicated To John Coltrane].wav

Pre-gap length 0:00:01.12

Peak level 100.0 %
Track quality 100.0 %
Test CRC B5809FE2
Copy CRC B5809FE2
Accurately ripped (confidence 30) [B3A9D72D]
Copy OK

Track 4

Filename C:\Stanley Clarke, Al Di Meola, Jean-Luc Ponty - The Rite Of Strings (1995)\04 - Chilean Pipe Song.wav

Pre-gap length 0:00:01.10

Peak level 88.2 %
Track quality 99.9 %
Test CRC C1B14CC0
Copy CRC C1B14CC0
Accurately ripped (confidence 30) [A6C89B07]
Copy OK

Track 5

Filename C:\Stanley Clarke, Al Di Meola, Jean-Luc Ponty - The Rite Of Strings (1995)\05 - Topanga.wav

Pre-gap length 0:00:01.12

Peak level 69.4 %
Track quality 100.0 %
Test CRC D57C171B
Copy CRC D57C171B
Accurately ripped (confidence 30) [4106AE46]
Copy OK

Track 6

Filename C:\Stanley Clarke, Al Di Meola, Jean-Luc Ponty - The Rite Of Strings (1995)\06 - Morocco.wav

Pre-gap length 0:00:02.22

Peak level 98.4 %
Track quality 100.0 %
Test CRC B986EDAB
Copy CRC B986EDAB
Accurately ripped (confidence 29) [B6470F28]
Copy OK

Track 7

Filename C:\Stanley Clarke, Al Di Meola, Jean-Luc Ponty - The Rite Of Strings (1995)\07 - Change Of Life.wav

Pre-gap length 0:00:01.40

Peak level 95.0 %
Track quality 100.0 %
Test CRC 60143C48
Copy CRC 60143C48
Accurately ripped (confidence 30) [015B6316]
Copy OK

Track 8

Filename C:\Stanley Clarke, Al Di Meola, Jean-Luc Ponty - The Rite Of Strings (1995)\08 - La Cancion De Sofia.wav

Pre-gap length 0:00:01.50

Peak level 100.0 %
Track quality 100.0 %
Test CRC 4AD0BACA
Copy CRC 4AD0BACA
Accurately ripped (confidence 30) [18CE1554]
Copy OK

Track 9

Filename C:\Stanley Clarke, Al Di Meola, Jean-Luc Ponty - The Rite Of Strings (1995)\09 - Memory Canyon.wav

Pre-gap length 0:00:01.05

Peak level 98.0 %
Track quality 100.0 %
Test CRC 9A058BF3
Copy CRC 9A058BF3
Accurately ripped (confidence 29) [7941FD1D]
Copy OK


All tracks accurately ripped

No errors occurred

End of status report

Bandwith

500 Kb/s 24/7

Thanks to Ruskaval

related torrents

Torrent name

health leech seeds Size
 

comments (0)

Main Menu