Jazz

(JazzPlanet) Chick Corea & Touchstone Rhumba e Flamenco UF SPG

  • Download 5x Faster
  • Download torrent
  • Direct Download
  • Rate this torrent +  |  -
(JazzPlanet) Chick Corea & Touchstone Rhumba e Flamenco UF SPG

Anonymous and Free Direct Download 300GB+


Torrent info

Name:(JazzPlanet) Chick Corea & Touchstone Rhumba e Flamenco UF SPG

Total Size: 650.22 MB

Magnet: Magnet Link

Seeds: 15

Leechers: 6

Stream: Watch Online @ Movie4u

Last Updated: 2011-01-03 20:52:44 (Update Now)

Torrent added: 2009-08-24 00:57:09



VPN For Torrents

Torrent Files List


chic_rhum_artwork (Size: 650.22 MB) (Files: 22)

 chic_rhum_artwork

  Cd2.jpg

611.69 KB

  Cd1.jpg

629.11 KB

  Booklet4.jpg

2.76 MB

  Booklet3.jpg

2.97 MB

  Booklet2.jpg

2.73 MB

  Booklet1.jpg

2.22 MB

  Back.jpg

1.50 MB

 chic_rhum_2

  Rhumba Flamenco (CD2).cue

0.94 KB

  Chick Corea & Touchstone - Rhumba Flamenco (CD2).m3u

0.11 KB

  Chick Corea & Touchstone - Rhumba Flamenco (CD2).log

3.30 KB

  05 - Rhumba Flamenco.flac

33.66 MB

  04 - Anna's Tango.flac

96.62 MB

  03 - Alan Corday.flac

54.13 MB

  02 - Kalimba.flac

16.88 MB

  01 - Mallorca.flac

97.34 MB

 chic_rhum_1

  Rhumba Flamenco (CD1).cue

0.79 KB

  Chick Corea & Touchstone - Rhumba Flamenco (CD1).m3u

0.10 KB

  Chick Corea & Touchstone - Rhumba Flamenco (CD1).log

2.92 KB

  04 - You're Everything.flac

61.29 MB

  03 - Zyriab.flac

81.28 MB

  02 - Blanca Con Puntillo.flac

74.17 MB

  01 - Touchstone.flac

121.44 MB
 

Announce URL: http://denis.stalker.h3q.com:6969/announce

Torrent description

Chick Corea & Touchstone - Rhumba Flamenco

Titolo: Rhumba Flamenco
Artista / Gruppo: Chick Corea
Genere: Jazz/Fusion/Latin/World
Anno di registrazione: 2005
Casa discografica: Chick Corea Productions
Numero dischi: 2
Registrazione: Live
Stereo: Stereo
Format: Flac 1.2.1b compressione: 6
Fonte: cd originale
Dimensioni: 670 Mb
Cover e Booklet: inside

Tracklist

Cd 1
01.- Touchstone (22:36)
02.- Blanca Con Puntillo (13:14)
03.- Zyriab (16:22)
04.- You’re Everything (10:24)

Cd 2
01.- Mallorca (17:29)
02.- Kalimba (3:50)
03.- Alan Corday (8:58)
04.- Anna’s Tango (20:11)
05.- Rhumba Flamenco (5:30)

Personnel

Chick Corea - Piano & keyboard
Jorge Pardo: sax and flute
Carles Benavent: bass
Rubem Dantas: percussions
Tom Brechtlein: drums

Eac's date

Exact Audio Copy V0.99 prebeta 5 from 4. May 2009

EAC extraction logfile from 27. July 2009, 13:34

Chick Corea & Touchstone / Rhumba Flamenco (CD2)

Used drive : PIONEER DVD-RW DVR-111L Adapter: 3 ID: 0

Read mode : Secure
Utilize accurate stream : Yes
Defeat audio cache : Yes
Make use of C2 pointers : No

Read offset correction : 48
Overread into Lead-In and Lead-Out : No
Fill up missing offset samples with silence : Yes
Delete leading and trailing silent blocks : No
Null samples used in CRC calculations : Yes
Used interface : Native Win32 interface for Win NT & 2000
Gap handling : Appended to previous track

Used output format : User Defined Encoder
Selected bitrate : 1024 kBit/s
Quality : High
Add ID3 tag : Yes
Command line compressor : C:\Program Files\FLAC\flac.exe
Additional command line options : -6 -V -T "ARTIST=%a" -T "TITLE=%t" -T "ALBUM=%g" -T "DATE=%y" -T "TRACKNUMBER=%n" -T "GENRE=%m" -T "COMMENT=EAC FLAC -8" %s


TOC of the extracted CD

Track | Start | Length | Start sector | End sector
---------------------------------------------------------
1 | 0:00.00 | 17:30.66 | 0 | 78815
2 | 17:30.66 | 3:50.55 | 78816 | 96120
3 | 21:21.46 | 8:59.10 | 96121 | 136555
4 | 30:20.56 | 20:11.40 | 136556 | 227420
5 | 50:32.21 | 5:29.10 | 227421 | 252105


Track 1

Filename C:\Chick Corea & Touchstone - Rhumba Flamenco. Live In Europe (2005) [2CD]\CD2\01 - Mallorca.wav

Pre-gap length 0:00:02.00

Peak level 98.5 %
Track quality 100.0 %
Test CRC 2D2D5B50
Copy CRC 2D2D5B50
Accurately ripped (confidence 3) [51E20F62]
Copy OK

Track 2

Filename C:\Chick Corea & Touchstone - Rhumba Flamenco. Live In Europe (2005) [2CD]\CD2\02 - Kalimba.wav

Pre-gap length 0:00:01.09

Peak level 98.4 %
Track quality 100.0 %
Test CRC D9230A13
Copy CRC D9230A13
Accurately ripped (confidence 3) [62214B81]
Copy OK

Track 3

Filename C:\Chick Corea & Touchstone - Rhumba Flamenco. Live In Europe (2005) [2CD]\CD2\03 - Alan Corday.wav

Pre-gap length 0:00:01.28

Peak level 98.6 %
Track quality 100.0 %
Test CRC 0FF1233E
Copy CRC 0FF1233E
Accurately ripped (confidence 3) [1784037A]
Copy OK

Track 4

Filename C:\Chick Corea & Touchstone - Rhumba Flamenco. Live In Europe (2005) [2CD]\CD2\04 - Anna's Tango.wav

Pre-gap length 0:00:01.51

Peak level 98.5 %
Track quality 100.0 %
Test CRC 8E46FA28
Copy CRC 8E46FA28
Accurately ripped (confidence 3) [8BB5F324]
Copy OK

Track 5

Filename C:\Chick Corea & Touchstone - Rhumba Flamenco. Live In Europe (2005) [2CD]\CD2\05 - Rhumba Flamenco.wav

Pre-gap length 0:00:01.60

Peak level 98.5 %
Track quality 100.0 %
Test CRC 49ED821E
Copy CRC 49ED821E
Accurately ripped (confidence 3) [0A0D657E]
Copy OK


All tracks accurately ripped

No errors occurred

End of status report

Bandwith

500 Kbs - 24/7

Thanks to ruskaval

related torrents

Torrent name

health leech seeds Size
 


comments (0)

Main Menu