Jazz

(JazzPlanet) Avishai Cohen Aurora (2009) [Eac FlacCue] UF SPG

  • Download 5x Faster
  • Download torrent
  • Direct Download
  • Rate this torrent +  |  -
(JazzPlanet) Avishai Cohen Aurora (2009) [Eac FlacCue] UF SPG

Free and Direct Download with Usenet 300GB+ free


Torrent info

Name:(JazzPlanet) Avishai Cohen Aurora (2009) [Eac FlacCue] UF SPG

Total Size: 238.25 MB

Magnet: Magnet Link

Seeds: 22

Leechers: 5

Stream: Watch Online @ Movie4u

Last Updated: 0000-00-00 00:00:00 (Update Now)

Torrent added: 2009-08-24 00:56:56




Torrent Files List


Avishai Cohen - Aurora.m3u (Size: 238.25 MB) (Files: 17)

 Avishai Cohen - Aurora.m3u

0.79 KB

 Avishai Cohen - Aurora.log

5.38 KB

 Aurora.cue

2.18 KB

 12 - Noches Noches - La Luz.flac

36.72 MB

 11 - Alfonsina Y El Mar.flac

15.98 MB

 10 - Aurora.flac

17.52 MB

 09 - Shir Preda.flac

15.88 MB

 08 - Still.flac

14.95 MB

 07 - Alon Basela.flac

25.04 MB

 06 - It's been so long.flac

16.94 MB

 05 - Winter Song.flac

26.51 MB

 04 - Leolam.flac

15.00 MB

 03 - El Hatzipor.flac

27.70 MB

 02 - Interlude in C# minor.flac

2.75 MB

 01 - Morenika.flac

23.16 MB

 Cover

  tras.gif

75.87 KB

  cover.jpg

26.52 KB
 

Announce URL: http://denis.stalker.h3q.com:6969/announce

Torrent description

Avishai Cohen - Aurora

Titolo: Aurora
Artista / Gruppo: Avishai Cohen
Genere: Jazz
Data di uscita: 2009
Casa discografica: Blue Note Records
Numero dischi: 1
Registrazione: Studio
Stereo: Stereo
Format: Flac compressione: 8
Fonte: Internet

Tracklist

01.- Morenika
02.- Interluce in C Sharp Minor
03.- El Hatzipor
04.- Leolam
05.- Winter Song
06.- Its Been So Long
07.- Alon Basela
08.- Still
09.- Shir Preda
10.- Aurora
11.- Alfonsina Y El Mar
12.- Noches Noches, La Luz

Personnel

Avishai Cohen – Vocals ,acoustic and electric bass and piano
Karen Malka - Vocals
Amos Hoffman - oud
Itamar Douari - percussion

Eac log

Exact Audio Copy V0.99 prebeta 4 from 23. January 2008

EAC extraction logfile from 9. April 2009, 12:58

Avishai Cohen / Aurora

Used drive : Optiarc DVD RW AD-5170A Adapter: 0 ID: 0

Read mode : Secure
Utilize accurate stream : Yes
Defeat audio cache : Yes
Make use of C2 pointers : No

Read offset correction : 48
Overread into Lead-In and Lead-Out : No
Fill up missing offset samples with silence : Yes
Delete leading and trailing silent blocks : No
Null samples used in CRC calculations : Yes
Used interface : Native Win32 interface for Win NT & 2000
Gap handling : Appended to previous track

Used output format : User Defined Encoder
Selected bitrate : 128 kBit/s
Quality : High
Add ID3 tag : No
Command line compressor : C:\Program Files\FLAC\flac.exe
Additional command line options : -V -8 -T "artist=%a" -T "title=%t" -T "album=%g" -T "date=%y" -T "tracknumber=%n" -T "genre=%m" %s


TOC of the extracted CD

Track | Start | Length | Start sector | End sector
---------------------------------------------------------
1 | 0:00.00 | 4:33.21 | 0 | 20495
2 | 4:33.21 | 0:59.34 | 20496 | 24954
3 | 5:32.55 | 6:04.47 | 24955 | 52301
4 | 11:37.27 | 3:31.15 | 52302 | 68141
5 | 15:08.42 | 4:59.57 | 68142 | 90623
6 | 20:08.24 | 5:17.18 | 90624 | 114416
7 | 25:25.42 | 4:05.22 | 114417 | 132813
8 | 29:30.64 | 3:35.05 | 132814 | 148943
9 | 33:05.69 | 4:02.60 | 148944 | 167153
10 | 37:08.54 | 4:23.72 | 167154 | 186950
11 | 41:32.51 | 4:29.16 | 186951 | 207141
12 | 46:01.67 | 7:22.43 | 207142 | 240334
13 | 55:56.35 | 6:38.51 | 251735 | 281635


Track 1

Filename K:\[ Torrents ]\Avishai Cohen\Aurora\01 - Morenika.wav

Pre-gap length 0:00:02.00

Peak level 99.8 %
Track quality 99.9 %
Test CRC C5D13DE0
Copy CRC C5D13DE0
Track not present in AccurateRip database
Copy OK

Track 2

Filename K:\[ Torrents ]\Avishai Cohen\Aurora\02 - Interlude in C# minor.wav

Peak level 49.1 %
Track quality 99.8 %
Test CRC C0A0A32C
Copy CRC C0A0A32C
Track not present in AccurateRip database
Copy OK

Track 3

Filename K:\[ Torrents ]\Avishai Cohen\Aurora\03 - El Hatzipor.wav

Pre-gap length 0:00:02.44

Peak level 99.8 %
Track quality 100.0 %
Test CRC 55309596
Copy CRC 55309596
Track not present in AccurateRip database
Copy OK

Track 4

Filename K:\[ Torrents ]\Avishai Cohen\Aurora\04 - Leolam.wav

Peak level 99.0 %
Track quality 99.9 %
Test CRC B773DFBA
Copy CRC B773DFBA
Track not present in AccurateRip database
Copy OK

Track 5

Filename K:\[ Torrents ]\Avishai Cohen\Aurora\05 - Winter Song.wav

Peak level 99.8 %
Track quality 100.0 %
Test CRC E21BCAC1
Copy CRC E21BCAC1
Track not present in AccurateRip database
Copy OK

Track 6

Filename K:\[ Torrents ]\Avishai Cohen\Aurora\06 - It's been so long.wav

Peak level 98.8 %
Track quality 100.0 %
Test CRC C9E4DA5D
Copy CRC C9E4DA5D
Track not present in AccurateRip database
Copy OK

Track 7

Filename K:\[ Torrents ]\Avishai Cohen\Aurora\07 - Alon Basela.wav

Pre-gap length 0:00:00.14

Peak level 99.8 %
Track quality 100.0 %
Test CRC F18125AF
Copy CRC F18125AF
Track not present in AccurateRip database
Copy OK

Track 8

Filename K:\[ Torrents ]\Avishai Cohen\Aurora\08 - Still.wav

Pre-gap length 0:00:04.10

Peak level 99.8 %
Track quality 100.0 %
Test CRC D1C2A2DA
Copy CRC D1C2A2DA
Track not present in AccurateRip database
Copy OK

Track 9

Filename K:\[ Torrents ]\Avishai Cohen\Aurora\09 - Shir Preda.wav

Pre-gap length 0:00:05.01

Peak level 99.8 %
Track quality 100.0 %
Test CRC CC07988C
Copy CRC CC07988C
Track not present in AccurateRip database
Copy OK

Track 10

Filename K:\[ Torrents ]\Avishai Cohen\Aurora\10 - Aurora.wav

Pre-gap length 0:00:00.89

Peak level 99.8 %
Track quality 100.0 %
Test CRC 1DB3BD3C
Copy CRC 1DB3BD3C
Track not present in AccurateRip database
Copy OK

Track 11

Filename K:\[ Torrents ]\Avishai Cohen\Aurora\11 - Alfonsina Y El Mar.wav

Pre-gap length 0:00:01.94

Peak level 99.8 %
Track quality 100.0 %
Test CRC A9288E07
Copy CRC A9288E07
Track not present in AccurateRip database
Copy OK

Track 12

Filename K:\[ Torrents ]\Avishai Cohen\Aurora\12 - Noches Noches - La Luz.wav

Pre-gap length 0:00:01.85

Peak level 99.8 %
Track quality 100.0 %
Test CRC 9996ACC1
Copy CRC 9996ACC1
Track not present in AccurateRip database
Copy OK


None of the tracks are present in the AccurateRip database

No errors occurred

End of status report


Bandwith

500 Kb/s 24/7

Thank you to marmaduke0

related torrents

Torrent name

health leech seeds Size
 

comments (0)

Main Menu