Jazz

(Eac Cue Wav) Yellowjackets Yellowjackets (JazzPlanet) (UltimaFrontiera SPG)

  • Download 5x Faster
  • Download torrent
  • Direct Download
  • Rate this torrent +  |  -


Torrent info

Name:(Eac Cue Wav) Yellowjackets Yellowjackets (JazzPlanet) (UltimaFrontiera SPG)

Total Size: 625.01 MB

Magnet: Magnet Link

Seeds: 4

Leechers: 4

Stream: Watch Online @ Movie4u

Last Updated: 2010-09-25 01:25:53 (Update Now)

Torrent added: 2009-08-24 00:56:49




Torrent Files List


Yellowjackets [1981] (reissue) [2003] - Yellowjackets.wav (Size: 625.01 MB) (Files: 6)

 Yellowjackets [1981] (reissue) [2003] - Yellowjackets.wav

620.23 MB

 Yellowjackets [1981] (reissue) [2003] - Yellowjackets.log

2.56 KB

 Yellowjackets [1981] (reissue) [2003] - Yellowjackets.cue

2.05 KB

 Scans

  Yellowjackets rear.jpg

1.92 MB

  Yellowjackets CD.jpg

1.25 MB

  Yellowjackets - Yellowjackets front0001.jpg

1.60 MB
 

Announce URL: http://tracker.thepiratebay.org/announce

Torrent description

Exact Audio Copy V0.99 prebeta 5 from 4. May 2009

EAC extraction logfile from 8. June 2009, 16:53

Yellowjackets [1981] (reissue) [2003] / Yellowjackets

Used drive : ASUS DRW-2014L1T Adapter: 3 ID: 0

Read mode : Secure
Utilize accurate stream : Yes
Defeat audio cache : No
Make use of C2 pointers : No

Read offset correction : 6
Overread into Lead-In and Lead-Out : No
Fill up missing offset samples with silence : Yes
Delete leading and trailing silent blocks : No
Null samples used in CRC calculations : Yes
Used interface : Installed external ASPI interface

Used output format : Internal WAV Routines
Sample format : 44.100 Hz; 16 Bit; Stereo


TOC of the extracted CD

Track | Start | Length | Start sector | End sector
---------------------------------------------------------
1 | 0:00.00 | 5:14.15 | 0 | 23564
2 | 5:14.15 | 5:31.30 | 23565 | 48419
3 | 10:45.45 | 5:13.30 | 48420 | 71924
4 | 15:59.00 | 5:17.47 | 71925 | 95746
5 | 21:16.47 | 5:34.60 | 95747 | 120856
6 | 26:51.32 | 5:16.13 | 120857 | 144569
7 | 32:07.45 | 6:02.40 | 144570 | 171759
8 | 38:10.10 | 5:13.62 | 171760 | 195296
9 | 43:23.72 | 6:58.15 | 195297 | 226661
10 | 50:22.12 | 6:06.25 | 226662 | 254136
11 | 56:28.37 | 4:58.25 | 254137 | 276511


Range status and errors

Selected range

Filename H:\\\\\\\\relle UF\\\\\\\\Yellowjackets - Yellowjackets\\\\\\\\Yellowjackets [1981] (reissue) [2003] - Yellowjackets.wav

Peak level 98.8 %
Range quality 100.0 %
Test CRC E59469CB
Copy CRC E59469CB
Copy OK

No errors occurred


AccurateRip summary

Track 1 accurately ripped (confidence 3) [2E9B407C]
Track 2 accurately ripped (confidence 3) [E3407B10]
Track 3 accurately ripped (confidence 3) [8A49ECD9]
Track 4 accurately ripped (confidence 3) [7B6ACC01]
Track 5 accurately ripped (confidence 3) [E8BA9FC5]
Track 6 accurately ripped (confidence 3) [F816CDFC]
Track 7 accurately ripped (confidence 2) [FC507365]
Track 8 accurately ripped (confidence 3) [1264DA1C]
Track 9 accurately ripped (confidence 3) [74391E49]
Track 10 accurately ripped (confidence 3) [03632961]
Track 11 accurately ripped (confidence 3) [62B532BD]

All tracks accurately ripped

End of status report

related torrents

Torrent name

health leech seeds Size
 

comments (0)

Main Menu