Jazz

(Eac Cue Flac)Jerry Bergonzi Tenorist (JazzPlanet) (UF) (SPG)

  • Download 5x Faster
  • Download torrent
  • Direct Download
  • Rate this torrent +  |  -
(Eac Cue Flac)Jerry Bergonzi Tenorist (JazzPlanet) (UF) (SPG)

Anonymous and Free Direct Download 300GB+


Torrent info

Name:(Eac Cue Flac)Jerry Bergonzi Tenorist (JazzPlanet) (UF) (SPG)

Total Size: 388.64 MB

Magnet: Magnet Link

Seeds: 0

Leechers: 0

Stream: Watch Online @ Movie4u

Last Updated: 2015-09-11 07:59:38 (Update Now)

Torrent added: 2009-08-24 00:56:47



VPN For Torrents

Torrent Files List


Jerry Bergonzi - Tenorist.log (Size: 388.64 MB) (Files: 7)

 Jerry Bergonzi - Tenorist.log

3.06 KB

 Jerry Bergonzi - Tenorist.flac

384.61 MB

 Jerry Bergonzi - Tenorist.cue

1.43 KB

 scans

  Jerry bergonzi - tenorist rear 2.jpg

983.11 KB

  bergonzi - tenorist rear0001.jpg

1.05 MB

  Bergonzi - tenorist front0001.jpg

1.04 MB

  bergonzi - tenorist CD0001.png

0.98 MB
 

tracker

leech seeds
 

Torrent description

Titolo: Tenorist
Artista / Gruppo: Jerry Bergonzi
Genere: Jazz Instrument
Sottogenere: Sassofono
Data di uscita: 09/07/2007
Anno di pubblicazione: 2007
Casa discografica: Savant
Produttore: Peter Kontrimas; Jerry Bergonzi
Numero dischi: 1
Registrazione: Studio
Stereo: Stereo
Format: Artista / Gruppo
EAN: 633842208527

TRACKLIST

1.: Gecko Plex
2.: Pannonica
3.: Simultaneous Looks
4.: Table Steaks
5.: La Mesha
6.: Czarology
7.: With Reference
8.: Creature Feature
9.: On Again Off Again

PERSONNEL

Jerry Bergonzi - Tenor Saxophones
John Abercrombie - Guitar
Adam Nussbaum - Drums
Dave Santoro - Bass

EAC

Exact Audio Copy V0.99 prebeta 5 from 4. May 2009

EAC extraction logfile from 21. June 2009, 17:31

Jerry Bergonzi / Tenorist

Used drive : ASUS DRW-2014L1T Adapter: 3 ID: 0

Read mode : Secure
Utilize accurate stream : Yes
Defeat audio cache : No
Make use of C2 pointers : No

Read offset correction : 6
Overread into Lead-In and Lead-Out : No
Fill up missing offset samples with silence : Yes
Delete leading and trailing silent blocks : No
Null samples used in CRC calculations : Yes
Used interface : Installed external ASPI interface

Used output format : User Defined Encoder
Selected bitrate : 1024 kBit/s
Quality : High
Add ID3 tag : No
Command line compressor : C:\Program Files\FLAC\flac.exe
Additional command line options : -8 -V -T "ARTIST=%a" -T "TITLE=%t" -T "ALBUM=%g" -T "DATE=%y" -T "TRACKNUMBER=%n" -T "GENRE=%m" -T "COMMENT=%e" %s -o %d


TOC of the extracted CD

Track | Start | Length | Start sector | End sector
---------------------------------------------------------
1 | 0:00.00 | 6:07.74 | 0 | 27598
2 | 6:07.74 | 6:52.12 | 27599 | 58510
3 | 13:00.11 | 6:55.09 | 58511 | 89644
4 | 19:55.20 | 7:59.38 | 89645 | 125607
5 | 27:54.58 | 6:19.15 | 125608 | 154047
6 | 34:13.73 | 3:50.58 | 154048 | 171355
7 | 38:04.56 | 7:41.37 | 171356 | 205967
8 | 45:46.18 | 7:07.19 | 205968 | 238011
9 | 52:53.37 | 4:29.29 | 238012 | 258215


Range status and errors

Selected range

Filename H:\relle UF\Jerry Bergonzi - Tenorist\Jerry Bergonzi - Tenorist.wav

Peak level 100.0 %
Range quality 100.0 %
Test CRC 623D5EB6
Copy CRC 623D5EB6
Copy OK

No errors occurred


AccurateRip summary

Track 1 cannot be verified as accurate (confidence 1) [D070A30E], AccurateRip returned [7B6E6A85]
Track 2 cannot be verified as accurate (confidence 1) [6E79D321], AccurateRip returned [B83984F1]
Track 3 cannot be verified as accurate (confidence 1) [58CCE36E], AccurateRip returned [FF45AF90]
Track 4 cannot be verified as accurate (confidence 1) [A619F269], AccurateRip returned [1C763DDB]
Track 5 cannot be verified as accurate (confidence 1) [868DEAF8], AccurateRip returned [BF362CAA]
Track 6 cannot be verified as accurate (confidence 1) [0A61106D], AccurateRip returned [CAD7036B]
Track 7 cannot be verified as accurate (confidence 1) [0EE86E43], AccurateRip returned [C39BBD19]
Track 8 cannot be verified as accurate (confidence 1) [2C921CCB], AccurateRip returned [7A97C0E7]
Track 9 cannot be verified as accurate (confidence 1) [AB2B86BC], AccurateRip returned [D0D7917C]

No tracks could be verified as accurate
You may have a different pressing from the one(s) in the database

End of status report

Enjoy!

related torrents

Torrent name

health leech seeds Size
 


comments (0)

Main Menu