Jazz

(Eac Cue Flac) Gerry Mulligan Paul Desmond Blues In Time (JazzPlanet) UF

  • Download 5x Faster
  • Download torrent
  • Direct Download
  • Rate this torrent +  |  -
(Eac Cue Flac) Gerry Mulligan Paul Desmond Blues In Time (JazzPlanet) UF

Free and Direct Download with Usenet.nl 300GB+ free


Torrent info

Name:(Eac Cue Flac) Gerry Mulligan Paul Desmond Blues In Time (JazzPlanet) UF

Total Size: 161.33 MB

Magnet: Magnet Link

Seeds: 0

Leechers: 0

Stream: Watch Online @ Movie4u

Last Updated: 2016-01-27 13:35:16 (Update Now)

Torrent added: 2009-08-24 00:56:44





Torrent Files List


Gerry Mulligan Paul Desmond - Blues In Time.flac (Size: 161.33 MB) (Files: 16)

 Gerry Mulligan Paul Desmond - Blues In Time.flac

127.91 MB

 Gerry Mulligan Paul Desmond - Blues In Time.cue

1.15 KB

 Blues In Time.log

2.45 KB

 Scans

  Thumbnail.jpg

211.35 KB

  inside 500.jpg

130.72 KB

  front 500.jpg

146.16 KB

  CD.jpg

2.87 MB

  CD 250.jpg

90.16 KB

  Booklet 06.jpg

1.19 MB

  Booklet 05.jpg

4.94 MB

  Booklet 04.jpg

4.97 MB

  Booklet 03.jpg

8.22 MB

  Booklet 02.jpg

1.40 MB

  Booklet 01.jpg

6.87 MB

  Back.jpg

2.32 MB

  Back 250.jpg

69.92 KB
 

tracker

leech seeds
 

Torrent description

Gerry Mulligan Paul Desmond - Blues In Time

1. Blues in Time
2. Body and Soul
3. Stand Still
4. Line for Lyons
5. Wintersong
6. Battle Hymn of the Republican
7. Fall Out

Exact Audio Copy V0.99 prebeta 3 from 28. July 2007

EAC extraction logfile from 4. December 2007, 22:15

Gerry Mulligan/Paul Desmond / Blues In Time

Used drive : HL-DT-STRW/DVD GCC-4241N Adapter: 1 ID: 0

Read mode : Secure
Utilize accurate stream : Yes
Defeat audio cache : No
Make use of C2 pointers : Yes

Read offset correction : 102
Overread into Lead-In and Lead-Out : No
Fill up missing offset samples with silence : Yes
Delete leading and trailing silent blocks : No
Null samples used in CRC calculations : No
Used interface : Native Win32 interface for Win NT & 2000

Used output format : User Defined Encoder
Selected bitrate : 768 kBit/s
Quality : High
Add ID3 tag : No
Command line compressor : C:\Program Files\Exact Audio Copy\FLAC\FLAC.EXE
Additional command line options : -6 -V -T "ARTIST=%a" -T "TITLE=%t" -T "ALBUM=%g" -T "DATE=%y" -T "TRACKNUMBER=%n" -T "GENRE=%m" -T "COMMENT=%e" %s -o %d


TOC of the extracted CD

Track | Start | Length | Start sector | End sector
---------------------------------------------------------
1 | 0:00.37 | 9:03.35 | 37 | 40796
2 | 9:03.72 | 9:39.73 | 40797 | 84294
3 | 18:43.70 | 3:29.02 | 84295 | 99971
4 | 22:12.72 | 3:08.55 | 99972 | 114126
5 | 25:21.52 | 6:59.30 | 114127 | 145581
6 | 32:21.07 | 7:45.55 | 145582 | 180511
7 | 40:06.62 | 5:47.23 | 180512 | 206559


Range status and errors

Selected range

Filename C:\Documents and Settings\User1\My Documents\My Music\Gerry Mulligan Paul Desmond - Blues In Time\Gerry Mulligan Paul Desmond - Blues In Time.wav

Peak level 97.9 %
Range quality 100.0 %
Copy CRC A85C0B2B
Copy OK

No errors occurred


AccurateRip summary

Track 1 accurately ripped (confidence 1) [921864B8]
Track 2 accurately ripped (confidence 1) [09633410]
Track 3 accurately ripped (confidence 1) [4F77A854]
Track 4 accurately ripped (confidence 1) [FE7FBADC]
Track 5 accurately ripped (confidence 1) [1DB3028C]
Track 6 accurately ripped (confidence 1) [5C8587A0]
Track 7 accurately ripped (confidence 1) [7E1DB930]

All tracks accurately ripped

End of status report

related torrents

Torrent name

health leech seeds Size
 

comments (0)

Main Menu